<?xml version="1.0" standalone="no"?>
<!DOCTYPE svg PUBLIC "-//W3C//DTD SVG 1.1//EN" "http://www.w3.org/Graphics/SVG/1.1/DTD/svg11.dtd" >
<svg>
<metadata>
Created by FontForge 20090622 at Mon Oct 19 11:10:02 2015
 By deploy user
Copyright 2014 Google Inc. All Rights Reserved.
</metadata>
<defs>
<font id="NotoNaskhArabic" horiz-adv-x="0" >
  <font-face 
    font-family="Noto Naskh Arabic"
    font-weight="400"
    font-stretch="normal"
    units-per-em="2048"
    panose-1="2 11 5 2 4 5 4 2 2 4"
    ascent="1638"
    descent="-410"
    bbox="-510 -1250 4398 2163"
    underline-thickness="102"
    underline-position="-103"
    unicode-range="U+000D-U+FEFF"
  />
<missing-glyph horiz-adv-x="1322" 
d="M166 -555v2718h990v-2718h-990zM314 -407h694v2422h-694v-2422zM6 -555z" />
    <glyph glyph-name="uni06440622.isol" unicode="&#xfedf;&#xfe82;" horiz-adv-x="1060" arabic-form="isolated" 
d="M280 0q-5 0 -5 22q0 28 11.5 81t19.5 53h43q136 106 202 168.5t127 141.5q-93 106 -207 202t-225 160l-75 -5q-53 49 -76.5 89.5t-23.5 86.5q0 31 13 60.5t57 52.5q85 -59 195.5 -151.5t205 -183.5t195.5 -211l3 8q36 78 36 167q0 86 -45 379q-22 140 -22 161
q0 103 137 128l36 -129l37 -114l-55 -47l3 -43l12 -293q0 -157 -79 -306q64 -102 109.5 -190.5t45.5 -113.5q0 -33 -24.5 -84.5t-38.5 -54.5q-191 -34 -612 -34zM874 196q-44 82 -130 192q-88 -122 -235 -228q180 6 365 36zM768 1509zM131 1212zM797 -106zM414 -106z
M187 1232q-94 0 -211 44l-98 -48l-25 42q121 98 135 98l36 -5q119 -29 171 -29q35 0 85.5 11.5t78.5 25.5l16 -44q-40 -42 -95.5 -68.5t-92.5 -26.5zM131 1212zM132 1408z" />
    <glyph glyph-name="uni06440622.fina" unicode="&#xfee0;&#xfe82;" horiz-adv-x="1249" arabic-form="final" 
d="M115 0l-7 71q238 59 334 97t164 88l1 1q-155 340 -372 547h-75q-42 43 -66 84t-24 92q0 78 78 113q121 -78 242.5 -242t190.5 -334q26 -65 78 -214q77 80 121 200.5t70 291t37 465.5q57 58 138 114q14 -312 22 -883l7 -281q93 -54 213 -54q17 0 17 -17v-122
q0 -17 -17 -17q-121 0 -200.5 47.5t-89.5 130.5q-16 119 -26.5 237.5t-28.5 413.5q-35 -316 -73 -447q-94 -329 -318 -357q-190 -21 -416 -25zM928 1474zM191 1193zM958 -106zM484 -106zM247 1213q-94 0 -211 44l-98 -48l-25 42q121 98 135 98l36 -5q119 -29 171 -29
q35 0 85.5 11.5t78.5 25.5l16 -44q-40 -42 -95.5 -68.5t-92.5 -26.5zM191 1193zM192 1389z" />
    <glyph glyph-name="uni06440623.isol" unicode="&#xfedf;&#xfe84;" horiz-adv-x="1060" arabic-form="isolated" 
d="M280 0q-5 0 -5 22q0 28 11.5 81t19.5 53h43q136 106 202 168.5t127 141.5q-93 106 -207 202t-225 160l-75 -5q-53 49 -76.5 89.5t-23.5 86.5q0 31 13 60.5t57 52.5q85 -59 195.5 -151.5t205 -183.5t195.5 -211l3 8q36 78 36 167q0 86 -45 379q-22 140 -22 161
q0 103 137 128l36 -129l37 -114l-55 -47l3 -43l12 -293q0 -157 -79 -306q64 -102 109.5 -190.5t45.5 -113.5q0 -33 -24.5 -84.5t-38.5 -54.5q-191 -34 -612 -34zM874 196q-44 82 -130 192q-88 -122 -235 -228q180 6 365 36zM768 1509zM131 1212zM797 -106zM414 -106z
M166 1431l1 8q0 9 -7.5 17.5t-18.5 8.5q-32 0 -58 -23t-38 -54q32 -41 97 -41q37 0 101 13l-4 -78q-85 -22 -139.5 -44.5t-113.5 -54.5l-5 79l81 46q-75 13 -75 82q0 58 48.5 109.5t102.5 51.5q80 0 80 -76q0 -27 -14 -55zM131 1212zM111 1601z" />
    <glyph glyph-name="uni06440623.fina" unicode="&#xfee0;&#xfe84;" horiz-adv-x="1249" arabic-form="final" 
d="M115 0l-7 71q238 59 334 97t164 88l1 1q-155 340 -372 547h-75q-42 43 -66 84t-24 92q0 78 78 113q121 -78 242.5 -242t190.5 -334q26 -65 78 -214q77 80 121 200.5t70 291t37 465.5q57 58 138 114q14 -312 22 -883l7 -281q93 -54 213 -54q17 0 17 -17v-122
q0 -17 -17 -17q-121 0 -200.5 47.5t-89.5 130.5q-16 119 -26.5 237.5t-28.5 413.5q-35 -316 -73 -447q-94 -329 -318 -357q-190 -21 -416 -25zM928 1474zM191 1193zM958 -106zM484 -106zM227 1412l1 8q0 9 -7.5 17.5t-18.5 8.5q-32 0 -58 -23t-38 -54q32 -41 97 -41
q37 0 101 13l-4 -78q-85 -22 -139.5 -44.5t-113.5 -54.5l-5 79l81 46q-75 13 -75 82q0 58 48.5 109.5t102.5 51.5q80 0 80 -76q0 -27 -14 -55zM192 1193zM172 1582z" />
    <glyph glyph-name="uni06440625.isol" unicode="&#xfedf;&#xfe88;" horiz-adv-x="1060" arabic-form="isolated" 
d="M280 0q-5 0 -5 22q0 28 11.5 81t19.5 53h43q136 106 202 168.5t127 141.5q-93 106 -207 202t-225 160l-75 -5q-53 49 -76.5 89.5t-23.5 86.5q0 31 13 60.5t57 52.5q85 -59 195.5 -151.5t205 -183.5t195.5 -211l3 8q36 78 36 167q0 86 -45 379q-22 140 -22 161
q0 103 137 128l36 -129l37 -114l-55 -47l3 -43l12 -293q0 -157 -79 -306q64 -102 109.5 -190.5t45.5 -113.5q0 -33 -24.5 -84.5t-38.5 -54.5q-191 -34 -612 -34zM874 196q-44 82 -130 192q-88 -122 -235 -228q180 6 365 36zM768 1509zM131 1212zM797 -106zM414 -106z
M473 -256l2 9q0 9 -7.5 17t-18.5 8q-32 0 -58.5 -22.5t-37.5 -53.5q31 -41 93 -41q45 0 105 13l-5 -79q-89 -23 -137 -42.5t-116 -56.5l-4 80l80 45q-74 16 -74 82q0 60 49 110.5t102 50.5q79 0 79 -75q0 -27 -13 -56zM414 -106zM449 -474z" />
    <glyph glyph-name="uni06440625.fina" unicode="&#xfee0;&#xfe88;" horiz-adv-x="1249" arabic-form="final" 
d="M115 0l-7 71q238 59 334 97t164 88l1 1q-155 340 -372 547h-75q-42 43 -66 84t-24 92q0 78 78 113q121 -78 242.5 -242t190.5 -334q26 -65 78 -214q77 80 121 200.5t70 291t37 465.5q57 58 138 114q14 -312 22 -883l7 -281q93 -54 213 -54q17 0 17 -17v-122
q0 -17 -17 -17q-121 0 -200.5 47.5t-89.5 130.5q-16 119 -26.5 237.5t-28.5 413.5q-35 -316 -73 -447q-94 -329 -318 -357q-190 -21 -416 -25zM928 1474zM191 1193zM958 -106zM484 -106zM543 -256l2 9q0 9 -7.5 17t-18.5 8q-32 0 -58.5 -22.5t-37.5 -53.5q31 -41 93 -41
q45 0 105 13l-5 -79q-89 -23 -137 -42.5t-116 -56.5l-4 80l80 45q-74 16 -74 82q0 60 49 110.5t102 50.5q79 0 79 -75q0 -27 -13 -56zM484 -106zM519 -474z" />
    <glyph glyph-name="uni06440627.isol" unicode="&#xfedf;&#xfe8e;" horiz-adv-x="1060" arabic-form="isolated" 
d="M280 0q-5 0 -5 22q0 28 11.5 81t19.5 53h43q136 106 202 168.5t127 141.5q-93 106 -207 202t-225 160l-75 -5q-53 49 -76.5 89.5t-23.5 86.5q0 31 13 60.5t57 52.5q85 -59 195.5 -151.5t205 -183.5t195.5 -211l3 8q36 78 36 167q0 86 -45 379q-22 140 -22 161
q0 103 137 128l36 -129l37 -114l-55 -47l3 -43l12 -293q0 -157 -79 -306q64 -102 109.5 -190.5t45.5 -113.5q0 -33 -24.5 -84.5t-38.5 -54.5q-191 -34 -612 -34zM874 196q-44 82 -130 192q-88 -122 -235 -228q180 6 365 36zM768 1509zM131 1212zM797 -106zM414 -106z" />
    <glyph glyph-name="uni06440627.fina" unicode="&#xfee0;&#xfe8e;" horiz-adv-x="1249" arabic-form="final" 
d="M115 0l-7 71q238 59 334 97t164 88l1 1q-155 340 -372 547h-75q-42 43 -66 84t-24 92q0 78 78 113q121 -78 242.5 -242t190.5 -334q26 -65 78 -214q77 80 121 200.5t70 291t37 465.5q57 58 138 114q14 -312 22 -883l7 -281q93 -54 213 -54q17 0 17 -17v-122
q0 -17 -17 -17q-121 0 -200.5 47.5t-89.5 130.5q-16 119 -26.5 237.5t-28.5 413.5q-35 -316 -73 -447q-94 -329 -318 -357q-190 -21 -416 -25zM928 1474zM191 1193zM958 -106zM484 -106z" />
    <glyph glyph-name="uni06440671.isol" unicode="&#xfedf;&#xfb51;" horiz-adv-x="1060" 
d="M280 0q-5 0 -5 22q0 28 11.5 81t19.5 53h43q136 106 202 168.5t127 141.5q-93 106 -207 202t-225 160l-75 -5q-53 49 -76.5 89.5t-23.5 86.5q0 31 13 60.5t57 52.5q85 -59 195.5 -151.5t205 -183.5t195.5 -211l3 8q36 78 36 167q0 86 -45 379q-22 140 -22 161
q0 103 137 128l36 -129l37 -114l-55 -47l3 -43l12 -293q0 -157 -79 -306q64 -102 109.5 -190.5t45.5 -113.5q0 -33 -24.5 -84.5t-38.5 -54.5q-191 -34 -612 -34zM874 196q-44 82 -130 192q-88 -122 -235 -228q180 6 365 36zM768 1509zM131 1212zM797 -106zM414 -106z
M155 1233q-38 0 -73.5 11t-87.5 38q-38 -17 -70 -49l-28 22q33 51 60.5 77t59.5 26q10 0 25 -7l11 -5q44 65 80 90.5t79 25.5q36 0 62 -34.5t26 -85.5q0 -29 -17 -69q-35 -25 -62 -32.5t-65 -7.5zM155 1315q44 0 60.5 4t49.5 17q-24 48 -69 48q-23 0 -45.5 -11t-61.5 -44
q42 -14 66 -14zM131 1212zM161 1512z" />
    <glyph glyph-name="uni06440671.fina" unicode="&#xfee0;&#xfb51;" horiz-adv-x="1249" 
d="M115 0l-7 71q238 59 334 97t164 88l1 1q-155 340 -372 547h-75q-42 43 -66 84t-24 92q0 78 78 113q121 -78 242.5 -242t190.5 -334q26 -65 78 -214q77 80 121 200.5t70 291t37 465.5q57 58 138 114q14 -312 22 -883l7 -281q93 -54 213 -54q17 0 17 -17v-122
q0 -17 -17 -17q-121 0 -200.5 47.5t-89.5 130.5q-16 119 -26.5 237.5t-28.5 413.5q-35 -316 -73 -447q-94 -329 -318 -357q-190 -21 -416 -25zM928 1474zM191 1193zM958 -106zM484 -106zM216 1214q-38 0 -73.5 11t-87.5 38q-38 -17 -70 -49l-28 22q33 51 60.5 77t59.5 26
q10 0 25 -7l11 -5q44 65 80 90.5t79 25.5q36 0 62 -34.5t26 -85.5q0 -29 -17 -69q-35 -25 -62 -32.5t-65 -7.5zM216 1296q44 0 60.5 4t49.5 17q-24 48 -69 48q-23 0 -45.5 -11t-61.5 -44q42 -14 66 -14zM192 1193zM222 1493z" />
    <glyph glyph-name="uniFDF2.pt1" unicode="&#xfedf;&#xfee0;&#xfeea;" horiz-adv-x="1950" 
d="M1462 0h-4q-147 0 -232 73q-75 -42 -135 -57.5t-145 -15.5h-3q-124 0 -201 46.5t-89 131.5l-12 74l-70 -132q-112 10 -154 19.5t-87.5 27t-93.5 44.5t-72.5 52t-24.5 46t17.5 68.5t44 100t80.5 100t126.5 92.5t155.5 80l-10 86q61 55 156 114l21 -740q93 -54 209 -54h7
q115 0 221 53l-81 721q54 56 138 115l11 -334l13 -500q98 -55 210 -55h7q121 0 224 54q-38 498 -103 1050q61 63 138 114l15 -303q21 -333 29 -492.5t9 -302.5q0 -68 -71 -205q-39 -71 -244 -71zM239 404q81 -69 179.5 -92.5t217.5 -25.5l-55 332q-115 -39 -204.5 -95.5
t-137.5 -118.5zM1154 1145zM1710 -106zM1214 -106zM1627 1474zM472 1050zM625 -106z" />
    <glyph glyph-name="uni0621" unicode="&#x621;" horiz-adv-x="894" arabic-form="isolated" 
d="M111 10q71 30 160 60l27 9q-3 2 -6 5q-29 20 -50 44.5t-32 52t-11 56.5q0 52 23.5 110t64.5 107t95.5 81t116.5 32q35 0 64.5 -9t51.5 -28t34 -47.5t12 -67.5q0 -23 -6.5 -48t-18.5 -44q-19 6 -31.5 11.5t-29.5 14.5q13 18 17 46v5q-8 7 -30 15q-28 8 -55 8
q-31 0 -60.5 -9t-60 -26t-58.5 -41t-51 -55q16 -37 40 -65t59 -48t81 -34q19 -6 39 -11q25 7 54 14q50 13 101.5 22.5l98.5 17.5t78 10q30 -34 30 -70q0 -46 -28.5 -71t-67.5 -29q-63 -5 -112 -9.5t-92 -9.5t-84 -12t-89 -17t-107.5 -24l-138.5 -32zM485 -176zM421 667z" />
    <glyph glyph-name="uni0622" unicode="&#x622;" horiz-adv-x="487" arabic-form="isolated" 
d="M322 682v-128q0 -198 -14 -537l-94 -17q-13 718 -56 1192l-1 26q0 65 32.5 103.5t102.5 52.5q3 -13 6 -24t67 -219l-55 -47l1 -10q11 -220 11 -392zM250 1474zM269 -106zM306 1494q-94 0 -211 44l-98 -48l-25 42q121 98 135 98l36 -5q119 -29 171 -29q35 0 85.5 11.5
t78.5 25.5l16 -44q-40 -42 -95.5 -68.5t-92.5 -26.5zM250 1474zM251 1670z" />
    <glyph glyph-name="uni0623" unicode="&#x623;" horiz-adv-x="487" arabic-form="isolated" 
d="M322 682v-128q0 -198 -14 -537l-94 -17q-13 718 -56 1192l-1 26q0 65 32.5 103.5t102.5 52.5q3 -13 6 -24t67 -219l-55 -47l1 -10q11 -220 11 -392zM250 1474zM269 -106zM285 1693l1 8q0 9 -7.5 17.5t-18.5 8.5q-32 0 -58 -23t-38 -54q32 -41 97 -41q37 0 101 13l-4 -78
q-85 -22 -139.5 -44.5t-113.5 -54.5l-5 79l81 46q-75 13 -75 82q0 58 48.5 109.5t102.5 51.5q80 0 80 -76q0 -27 -14 -55zM250 1474zM230 1863z" />
    <glyph glyph-name="uni0624" unicode="&#x624;" horiz-adv-x="959" arabic-form="isolated" 
d="M395 -416q-66 0 -168 41.5t-157 89.5l29 67q110 -38 249 -38q154 0 264 90.5t166 265.5l-2 17l-4 -3q-55 -53 -125.5 -83.5t-145.5 -30.5q-118 0 -186.5 72.5t-68.5 191.5q0 104 42 206t110 164t137 62q79 0 151.5 -71t120.5 -201.5t48 -258.5q0 -145 -65 -285t-170 -218
t-225 -78zM503 522q-42 0 -83.5 -31.5t-68.5 -80t-27 -89.5q0 -74 59 -114t167 -40q51 0 93.5 8.5t114.5 38.5q-35 134 -107 221t-148 87zM525 796zM396 -516zM514 1174zM560 1015l1 8q0 9 -7.5 17.5t-18.5 8.5q-32 0 -58 -23t-38 -54q32 -41 97 -41q37 0 101 13l-4 -78
q-85 -22 -139.5 -44.5t-113.5 -54.5l-5 79l81 46q-75 13 -75 82q0 58 48.5 109.5t102.5 51.5q80 0 80 -76q0 -27 -14 -55zM525 796zM505 1185z" />
    <glyph glyph-name="uni0625" unicode="&#x625;" horiz-adv-x="524" arabic-form="isolated" 
d="M322 682v-128q0 -198 -14 -537l-94 -17q-13 718 -56 1192l-1 26q0 65 32.5 103.5t102.5 52.5q3 -13 6 -24t67 -219l-55 -47l1 -10q11 -220 11 -392zM250 1474zM269 -106zM328 -256l2 9q0 9 -7.5 17t-18.5 8q-32 0 -58.5 -22.5t-37.5 -53.5q31 -41 93 -41q45 0 105 13
l-5 -79q-89 -23 -137 -42.5t-116 -56.5l-4 80l80 45q-74 16 -74 82q0 60 49 110.5t102 50.5q79 0 79 -75q0 -27 -13 -56zM269 -106zM304 -474z" />
    <glyph glyph-name="uni0626" unicode="&#x626;" horiz-adv-x="1266" arabic-form="isolated" 
d="M1121 -98q-52 9 -108 14q-154 12 -231 37.5t-116.5 83.5t-39.5 149q0 94 66 214.5t166.5 208t179.5 87.5q69 0 104 -47.5t54 -130.5l-73 -21q-15 20 -28 26t-38 6q-54 0 -135 -56.5t-143 -137.5t-79 -157q59 -54 225 -77q157 -22 213 -63t56 -134q0 -94 -113 -200
t-274 -173t-297 -67q-175 0 -273 100.5t-98 284.5q0 59 7.5 111.5t32.5 153.5l75 -18q-23 -90 -23 -146q0 -150 75 -233.5t209 -83.5q109 0 244.5 39.5t232 100.5t129.5 129zM420 493zM68 -537zM560 -636zM454 759l2 10q0 9 -8 18.5t-22 9.5q-34 0 -63.5 -25.5t-41.5 -60.5
q34 -44 104 -44q50 0 115 14l-5 -88q-82 -21 -138.5 -42.5t-141.5 -67.5l-5 88l43 26l46 25q-83 16 -83 91q0 65 53.5 122t113.5 57q49 0 69.5 -24.5t20.5 -59.5q0 -26 -16 -61zM387 942zM420 493z" />
    <glyph glyph-name="uni0627" unicode="&#x627;" horiz-adv-x="487" arabic-form="isolated" 
d="M322 682v-128q0 -198 -14 -537l-94 -17q-13 718 -56 1192l-1 26q0 65 32.5 103.5t102.5 52.5q3 -13 6 -24t67 -219l-55 -47l1 -10q11 -220 11 -392zM250 1474zM269 -106z" />
    <glyph glyph-name="uni0628" unicode="&#x628;" horiz-adv-x="1581" arabic-form="isolated" 
d="M643 0q-241 0 -370.5 87t-129.5 262q0 127 28 225h73q-2 -8 -4.5 -42t-2.5 -59q0 -119 45 -184t143.5 -99t260.5 -34q191 0 373 39t323 106q-22 85 -74 225q-39 104 -39 137q0 44 35 90t100 83q9 -60 22 -119l25 -116t20.5 -110t8.5 -100q0 -71 -71 -208
q-135 -87 -329.5 -135t-436.5 -48zM748 816zM774 -60zM774 -106zM910 -260q-48 -69 -132 -150q-88 69 -147 134q92 90 143 150q71 -77 136 -134zM773 -276zM774 -106zM778 -430zM774 -76z" />
    <glyph glyph-name="uni0629" unicode="&#x629;" horiz-adv-x="867" arabic-form="isolated" 
d="M321 738q0 32 15.5 60t39.5 38q92 -32 179.5 -108.5t147 -180t59.5 -187.5q0 -61 -48 -167t-91 -136q-86 -57 -202 -57q-115 0 -183 67.5t-68 190.5q0 96 48.5 192.5t153.5 196.5q-32 19 -41.5 43t-9.5 48zM264 318q0 -73 47 -114t132 -41q55 0 120 30t98 61
q-42 202 -231 349q-76 -71 -121 -148.5t-45 -136.5zM377 936zM472 -60zM472 -106zM343 1076q-37 -59 -121 -140q-92 74 -136 125q54 50 132 138q24 -25 125 -123zM652 1105q-38 -61 -123 -140q-87 69 -135 126q22 20 132 138q24 -26 126 -124zM376 916zM366 1279zM376 936z
" />
    <glyph glyph-name="uni062A" unicode="&#x62a;" horiz-adv-x="1581" arabic-form="isolated" 
d="M643 0q-241 0 -370.5 87t-129.5 262q0 127 28 225h73q-2 -8 -4.5 -42t-2.5 -59q0 -119 45 -184t143.5 -99t260.5 -34q191 0 373 39t323 106q-22 85 -74 225q-39 104 -39 137q0 44 35 90t100 83q9 -60 22 -119l25 -116t20.5 -110t8.5 -100q0 -71 -71 -208
q-135 -87 -329.5 -135t-436.5 -48zM748 816zM774 -60zM774 -106zM715 956q-37 -59 -121 -140q-92 74 -136 125q54 50 132 138q24 -25 125 -123zM1024 985q-38 -61 -123 -140q-87 69 -135 126q22 20 132 138q24 -26 126 -124zM748 796zM738 1159zM748 816z" />
    <glyph glyph-name="uni062B" unicode="&#x62b;" horiz-adv-x="1581" arabic-form="isolated" 
d="M643 0q-241 0 -370.5 87t-129.5 262q0 127 28 225h73q-2 -8 -4.5 -42t-2.5 -59q0 -119 45 -184t143.5 -99t260.5 -34q191 0 373 39t323 106q-22 85 -74 225q-39 104 -39 137q0 44 35 90t100 83q9 -60 22 -119l25 -116t20.5 -110t8.5 -100q0 -71 -71 -208
q-135 -87 -329.5 -135t-436.5 -48zM748 816zM774 -60zM774 -106zM860 1085q-59 -69 -106 -102q-57 35 -116 102q62 59 110 113q38 -51 112 -113zM717 915q-36 -56 -109 -126q-80 63 -123 112q49 46 119 125q22 -23 113 -111zM1010 941q-39 -60 -110 -126q-71 56 -121 113
q37 34 118 125zM749 815zM748 1248z" />
    <glyph glyph-name="uni062C" unicode="&#x62c;" horiz-adv-x="1302" arabic-form="isolated" 
d="M394 609q-97 0 -177 -50l-48 -29q-12 11 -21 32.5t-9 46.5q0 77 69 124t179 47q88 0 173 -22.5t171 -49t174 -49t183 -22.5h32l102 4l-58 -157q-61 -9 -115 -9q-128 -9 -275.5 -61.5t-259.5 -130.5t-173.5 -173t-61.5 -196q0 -162 115 -247.5t349 -85.5q253 0 501 57
l23 -69q-150 -83 -279.5 -120t-249.5 -37q-254 0 -393 129t-139 373q0 128 63 253.5t174 221.5t238 145q-13 5 -107 35t-126 35t-54 5zM700 880zM128 -537zM761 -6zM708 -688zM898 10q-48 -69 -132 -150q-88 69 -147 134q92 90 143 150q71 -77 136 -134zM761 -6zM762 164z
M766 -160zM762 194z" />
    <glyph glyph-name="uni062D" unicode="&#x62d;" horiz-adv-x="1302" arabic-form="isolated" 
d="M394 609q-97 0 -177 -50l-48 -29q-12 11 -21 32.5t-9 46.5q0 77 69 124t179 47q88 0 173 -22.5t171 -49t174 -49t183 -22.5h32l102 4l-58 -157q-61 -9 -115 -9q-128 -9 -275.5 -61.5t-259.5 -130.5t-173.5 -173t-61.5 -196q0 -162 115 -247.5t349 -85.5q253 0 501 57
l23 -69q-150 -83 -279.5 -120t-249.5 -37q-254 0 -393 129t-139 373q0 128 63 253.5t174 221.5t238 145q-13 5 -107 35t-126 35t-54 5zM700 880zM128 -537zM761 -6zM708 -688z" />
    <glyph glyph-name="uni062E" unicode="&#x62e;" horiz-adv-x="1302" arabic-form="isolated" 
d="M394 609q-97 0 -177 -50l-48 -29q-12 11 -21 32.5t-9 46.5q0 77 69 124t179 47q88 0 173 -22.5t171 -49t174 -49t183 -22.5h32l102 4l-58 -157q-61 -9 -115 -9q-128 -9 -275.5 -61.5t-259.5 -130.5t-173.5 -173t-61.5 -196q0 -162 115 -247.5t349 -85.5q253 0 501 57
l23 -69q-150 -83 -279.5 -120t-249.5 -37q-254 0 -393 129t-139 373q0 128 63 253.5t174 221.5t238 145q-13 5 -107 35t-126 35t-54 5zM700 880zM128 -537zM761 -6zM708 -688zM832 1050q-48 -69 -132 -150q-91 72 -147 133q105 105 143 150q65 -71 136 -133zM700 880z
M696 1233z" />
    <glyph glyph-name="uni062F" unicode="&#x62f;" horiz-adv-x="847" arabic-form="isolated" 
d="M320 0q-125 0 -187.5 34t-62.5 96q0 66 36 108q51 -42 116.5 -62t162.5 -20q136 0 278 42q-32 91 -85 188l-70 128q-31 54 -43.5 91t-12.5 75q0 100 108 136q31 -84 66 -159.5l65 -141.5t50 -123t20 -104q0 -30 -19 -86.5t-53 -121.5q-149 -80 -369 -80zM448 916z
M439 -60zM439 -106z" />
    <glyph glyph-name="uni0630" unicode="&#x630;" horiz-adv-x="847" arabic-form="isolated" 
d="M320 0q-125 0 -187.5 34t-62.5 96q0 66 36 108q51 -42 116.5 -62t162.5 -20q136 0 278 42q-32 91 -85 188l-70 128q-31 54 -43.5 91t-12.5 75q0 100 108 136q31 -84 66 -159.5l65 -141.5t50 -123t20 -104q0 -30 -19 -86.5t-53 -121.5q-149 -80 -369 -80zM448 916z
M439 -60zM439 -106zM580 1066q-48 -69 -132 -150q-91 72 -147 133q105 105 143 150q65 -71 136 -133zM448 896zM444 1249z" />
    <glyph glyph-name="uni0631" unicode="&#x631;" horiz-adv-x="762" arabic-form="isolated" 
d="M198 -418q-49 0 -134 38.5t-134 76.5l28 68q112 -23 193 -23q154 0 263 91.5t167 266.5q-27 66 -62 129q-72 124 -104.5 199.5t-32.5 126.5q0 52 31.5 83.5t87.5 59.5q15 -56 41 -124.5l52 -140t45 -141t19 -127.5q0 -159 -60.5 -295.5t-166 -212t-233.5 -75.5zM372 798z
M204 -518z" />
    <glyph glyph-name="uni0632" unicode="&#x632;" horiz-adv-x="762" arabic-form="isolated" 
d="M198 -418q-49 0 -134 38.5t-134 76.5l28 68q112 -23 193 -23q154 0 263 91.5t167 266.5q-27 66 -62 129q-72 124 -104.5 199.5t-32.5 126.5q0 52 31.5 83.5t87.5 59.5q15 -56 41 -124.5l52 -140t45 -141t19 -127.5q0 -159 -60.5 -295.5t-166 -212t-233.5 -75.5zM372 798z
M204 -518zM504 968q-48 -69 -132 -150q-91 72 -147 133q105 105 143 150q65 -71 136 -133zM372 798zM368 1151z" />
    <glyph glyph-name="uni0633" unicode="&#x633;" horiz-adv-x="2075" arabic-form="isolated" 
d="M1170 0l-75 4l1 -38q0 -126 -80 -241t-219 -188t-287 -73q-175 0 -273 100.5t-98 284.5q0 59 7.5 111.5t32.5 153.5l75 -18q-23 -90 -23 -146q0 -150 75 -233.5t209 -83.5q152 0 303 74t202 182q-134 293 -134 391q0 53 30 96t104 87q9 -72 22 -138l29 -150
q62 -19 122 -19q115 0 181 21q12 19 24 58q51 171 71.5 214.5t40 55t43.5 11.5q28 0 48 -15q-28 -60 -88 -259q101 -47 183.5 -64t176.5 -17q-23 84 -76 225q-41 106 -41 138q0 45 36 91t98 81q9 -60 23 -119l26.5 -115.5t21.5 -109.5t9 -100q0 -33 -24 -114t-54 -138
q-132 0 -228 18.5t-206 69.5l-18 -33q-17 -26 -92 -40.5t-178 -14.5zM1413 676zM1471 -60zM1471 -156z" />
    <glyph glyph-name="uni0634" unicode="&#x634;" horiz-adv-x="2075" arabic-form="isolated" 
d="M1170 0l-75 4l1 -38q0 -126 -80 -241t-219 -188t-287 -73q-175 0 -273 100.5t-98 284.5q0 59 7.5 111.5t32.5 153.5l75 -18q-23 -90 -23 -146q0 -150 75 -233.5t209 -83.5q152 0 303 74t202 182q-134 293 -134 391q0 53 30 96t104 87q9 -72 22 -138l29 -150
q62 -19 122 -19q115 0 181 21q12 19 24 58q51 171 71.5 214.5t40 55t43.5 11.5q28 0 48 -15q-28 -60 -88 -259q101 -47 183.5 -64t176.5 -17q-23 84 -76 225q-41 106 -41 138q0 45 36 91t98 81q9 -60 23 -119l26.5 -115.5t21.5 -109.5t9 -100q0 -33 -24 -114t-54 -138
q-132 0 -228 18.5t-206 69.5l-18 -33q-17 -26 -92 -40.5t-178 -14.5zM1413 676zM1471 -60zM1471 -156zM1524 946q-59 -69 -106 -102q-57 35 -116 102q62 59 110 113q38 -51 112 -113zM1381 776q-36 -56 -109 -126q-80 63 -123 112q49 46 119 125q22 -23 113 -111zM1674 802
q-39 -60 -110 -126q-71 56 -121 113q37 34 118 125zM1413 676zM1412 1109z" />
    <glyph glyph-name="uni0635" unicode="&#x635;" horiz-adv-x="2244" arabic-form="isolated" 
d="M510 -536q-175 0 -273 100.5t-98 284.5q0 59 7.5 111.5t32.5 153.5l75 -18q-23 -90 -23 -146q0 -150 75 -233.5t209 -83.5q152 0 303 74t202 182q-134 293 -134 391q0 53 30 96t104 87q8 -60 41 -235l36 -15l10 -3q206 270 370.5 395.5t299.5 125.5q63 0 150.5 -51
t149.5 -122.5t62 -124.5q0 -125 -79.5 -221.5t-240 -154t-339.5 -57.5q-206 0 -389 50q5 -43 5 -84q0 -126 -80 -241t-219 -188t-287 -73zM1500 156q267 0 547 175q-62 108 -149 168.5t-171 60.5q-101 0 -239 -100t-284 -276q168 -28 296 -28zM1473 831zM1619 -60z
M1619 -106z" />
    <glyph glyph-name="uni0636" unicode="&#x636;" horiz-adv-x="2244" arabic-form="isolated" 
d="M510 -536q-175 0 -273 100.5t-98 284.5q0 59 7.5 111.5t32.5 153.5l75 -18q-23 -90 -23 -146q0 -150 75 -233.5t209 -83.5q152 0 303 74t202 182q-134 293 -134 391q0 53 30 96t104 87q8 -60 41 -235l36 -15l10 -3q206 270 370.5 395.5t299.5 125.5q63 0 150.5 -51
t149.5 -122.5t62 -124.5q0 -125 -79.5 -221.5t-240 -154t-339.5 -57.5q-206 0 -389 50q5 -43 5 -84q0 -126 -80 -241t-219 -188t-287 -73zM1500 156q267 0 547 175q-62 108 -149 168.5t-171 60.5q-101 0 -239 -100t-284 -276q168 -28 296 -28zM1473 831zM1619 -60z
M1619 -106zM1605 1001q-48 -69 -132 -150q-91 72 -147 133q105 105 143 150q65 -71 136 -133zM1473 831zM1469 1184z" />
    <glyph glyph-name="uni0637" unicode="&#x637;" horiz-adv-x="1575" arabic-form="isolated" 
d="M811 0q-125 0 -245 7.5t-173 17.5t-149.5 59.5t-156.5 92.5l21 71l240 -52l70 -12l119 148q-133 720 -133 881q0 69 32.5 108t103.5 53q25 -99 53 -180l20 -63l-55 -47l37 -346q20 -172 23 -314v-1q291 308 491 308q58 0 143 -47t152 -121t67 -130q0 -126 -80.5 -222.5
t-241.5 -153.5t-338 -57zM832 156q267 0 547 175q-62 108 -149 168.5t-172 60.5q-101 0 -242 -102.5t-293 -287.5q154 -14 309 -14zM1087 891zM802 -60zM802 -106z" />
    <glyph glyph-name="uni0638" unicode="&#x638;" horiz-adv-x="1575" arabic-form="isolated" 
d="M811 0q-125 0 -245 7.5t-173 17.5t-149.5 59.5t-156.5 92.5l21 71l240 -52l70 -12l119 148q-133 720 -133 881q0 69 32.5 108t103.5 53q25 -99 53 -180l20 -63l-55 -47l37 -346q20 -172 23 -314v-1q291 308 491 308q58 0 143 -47t152 -121t67 -130q0 -126 -80.5 -222.5
t-241.5 -153.5t-338 -57zM832 156q267 0 547 175q-62 108 -149 168.5t-172 60.5q-101 0 -242 -102.5t-293 -287.5q154 -14 309 -14zM1087 891zM802 -60zM802 -106zM1219 1061q-48 -69 -132 -150q-91 72 -147 133q105 105 143 150q65 -71 136 -133zM1087 891zM1083 1244z" />
    <glyph glyph-name="uni0639" unicode="&#x639;" horiz-adv-x="1237" arabic-form="isolated" 
d="M762 -585q-240 0 -384.5 120t-144.5 321q0 231 167 408q-63 19 -122 63t-94 103t-35 124q0 88 47 183t122.5 154.5t158.5 59.5q72 0 131 -31t149 -105l-35 -65q-120 37 -194 37q-126 0 -262 -75q0 -121 84 -200.5t234 -103.5q150 90 358 160q23 -31 23 -65q0 -42 -34 -77
t-124 -71q-188 -74 -293 -145t-155.5 -151.5t-50.5 -168.5q0 -147 116.5 -226.5t343.5 -79.5q141 0 258.5 14.5t239.5 42.5l23 -69q-283 -157 -527 -157zM459 1051zM128 -537zM771 -30zM722 -685z" />
    <glyph glyph-name="uni063A" unicode="&#x63a;" horiz-adv-x="1237" arabic-form="isolated" 
d="M762 -585q-240 0 -384.5 120t-144.5 321q0 231 167 408q-63 19 -122 63t-94 103t-35 124q0 88 47 183t122.5 154.5t158.5 59.5q72 0 131 -31t149 -105l-35 -65q-120 37 -194 37q-126 0 -262 -75q0 -121 84 -200.5t234 -103.5q150 90 358 160q23 -31 23 -65q0 -42 -34 -77
t-124 -71q-188 -74 -293 -145t-155.5 -151.5t-50.5 -168.5q0 -147 116.5 -226.5t343.5 -79.5q141 0 258.5 14.5t239.5 42.5l23 -69q-283 -157 -527 -157zM459 1051zM128 -537zM771 -30zM722 -685zM591 1221q-48 -69 -132 -150q-91 72 -147 133q105 105 143 150
q65 -71 136 -133zM459 1051zM455 1404z" />
    <glyph glyph-name="uni063B.init" unicode="&#x63b;" horiz-adv-x="849" 
d="M0 0q-17 0 -17 17v122q0 17 17 17q141 0 248 14.5t188 37.5t168 68q-37 114 -141 213.5t-287 188.5q-24 -7 -51 -7q-54 0 -89.5 37.5t-35.5 95.5q0 45 21.5 117.5t32.5 78.5q273 141 418.5 207.5t309.5 132.5q31 -27 31 -78l-1 -18q-10 -71 -86 -102q-419 -175 -651 -282
q156 -38 298.5 -125t227.5 -195.5t85 -203.5q0 -164 -170.5 -250t-515.5 -86zM100 1180zM401 -60zM401 -106zM728 1493q-49 -65 -85 -98q-65 52 -95 88q26 23 93 97zM552 1403q-44 -61 -85 -98q-66 52 -94 88q46 42 92 96zM521 1600z" />
    <glyph glyph-name="uni063B.medi" unicode="&#x63b;" horiz-adv-x="940" 
d="M975 139v-122q0 -17 -18 -17q-98 0 -188 36t-161 114q-153 -150 -608 -150q-17 0 -17 17v122q0 17 17 17q255 0 436 52q79 22 168 68q-37 115 -142.5 215t-285.5 187q-89 43 -131.5 80.5t-42.5 90.5q0 39 9.5 66.5t31.5 49.5q32 31 248 138q102 48 153 70l285 118l120 49
q15 -14 23.5 -36t8.5 -43l-1 -17q-11 -71 -86 -102l-556 -228l-139 -61q148 -37 284.5 -122t217.5 -191q85 -109 85 -204q0 -44 -12 -82q124 -98 283 -98q18 0 18 -17zM102 1162zM406 -60zM406 26zM406 -106zM796 1493q-49 -65 -85 -98q-65 52 -95 88q26 23 93 97zM620 1403
q-44 -61 -85 -98q-66 52 -94 88q46 42 92 96zM589 1600z" />
    <glyph glyph-name="uni063B.fina" unicode="&#x63b;" horiz-adv-x="1589" 
d="M1603 139v-122q0 -17 -18 -17q-98 0 -188 36t-161 114q-153 -150 -608 -150q-252 0 -371.5 72.5t-119.5 215.5q0 68 27 131h73q-8 -38 -8 -83q0 -96 95 -138t322 -42q250 0 423 51q77 23 163 70q-38 115 -143 215t-285 186q-89 43 -131.5 80.5t-42.5 90.5q0 39 9.5 66.5
t31.5 49.5q32 31 248 138q102 48 153 70l285 118l120 49q15 -14 23.5 -36t8.5 -43l-1 -17q-11 -71 -86 -102l-556 -228l-139 -61q148 -37 284.5 -122t217.5 -191q85 -109 85 -204q0 -42 -12 -82q124 -98 283 -98q18 0 18 -17zM751 1179zM969 -60zM969 -106zM1446 1493
q-49 -65 -85 -98q-65 52 -95 88q26 23 93 97zM1270 1403q-44 -61 -85 -98q-66 52 -94 88q46 42 92 96zM1239 1600z" />
    <glyph glyph-name="uni063C.init" unicode="&#x63c;" horiz-adv-x="849" 
d="M0 0q-17 0 -17 17v122q0 17 17 17q141 0 248 14.5t188 37.5t168 68q-37 114 -141 213.5t-287 188.5q-24 -7 -51 -7q-54 0 -89.5 37.5t-35.5 95.5q0 45 21.5 117.5t32.5 78.5q273 141 418.5 207.5t309.5 132.5q31 -27 31 -78l-1 -18q-10 -71 -86 -102q-419 -175 -651 -282
q156 -38 298.5 -125t227.5 -195.5t85 -203.5q0 -164 -170.5 -250t-515.5 -86zM100 1180zM401 -60zM401 -106zM370 -243q-34 -53 -109 -125q-75 58 -122 113q28 25 119 124q24 -28 112 -112zM664 -216q-37 -57 -110 -125q-76 57 -123 113q54 48 120 122zM524 -407
q-66 -73 -107 -102q-57 35 -116 102q62 56 110 114q31 -40 113 -114zM405 -237zM401 -106zM417 -529z" />
    <glyph glyph-name="uni063C.medi" unicode="&#x63c;" horiz-adv-x="940" 
d="M975 139v-122q0 -17 -18 -17q-98 0 -188 36t-161 114q-153 -150 -608 -150q-17 0 -17 17v122q0 17 17 17q255 0 436 52q79 22 168 68q-37 115 -142.5 215t-285.5 187q-89 43 -131.5 80.5t-42.5 90.5q0 39 9.5 66.5t31.5 49.5q32 31 248 138q102 48 153 70l285 118l120 49
q15 -14 23.5 -36t8.5 -43l-1 -17q-11 -71 -86 -102l-556 -228l-139 -61q148 -37 284.5 -122t217.5 -191q85 -109 85 -204q0 -44 -12 -82q124 -98 283 -98q18 0 18 -17zM102 1162zM406 -60zM406 26zM406 -106zM375 -243q-34 -53 -109 -125q-75 58 -122 113q28 25 119 124
q24 -28 112 -112zM669 -216q-37 -57 -110 -125q-76 57 -123 113q54 48 120 122zM529 -407q-66 -73 -107 -102q-57 35 -116 102q62 56 110 114q31 -40 113 -114zM410 -237zM406 -106zM422 -529z" />
    <glyph glyph-name="uni063C.fina" unicode="&#x63c;" horiz-adv-x="1589" 
d="M1603 139v-122q0 -17 -18 -17q-98 0 -188 36t-161 114q-153 -150 -608 -150q-252 0 -371.5 72.5t-119.5 215.5q0 68 27 131h73q-8 -38 -8 -83q0 -96 95 -138t322 -42q250 0 423 51q77 23 163 70q-38 115 -143 215t-285 186q-89 43 -131.5 80.5t-42.5 90.5q0 39 9.5 66.5
t31.5 49.5q32 31 248 138q102 48 153 70l285 118l120 49q15 -14 23.5 -36t8.5 -43l-1 -17q-11 -71 -86 -102l-556 -228l-139 -61q148 -37 284.5 -122t217.5 -191q85 -109 85 -204q0 -42 -12 -82q124 -98 283 -98q18 0 18 -17zM751 1179zM969 -60zM969 -106zM938 -243
q-34 -53 -109 -125q-75 58 -122 113q28 25 119 124q24 -28 112 -112zM1232 -216q-37 -57 -110 -125q-76 57 -123 113q54 48 120 122zM1092 -407q-66 -73 -107 -102q-57 35 -116 102q62 56 110 114q31 -40 113 -114zM973 -237zM969 -106zM985 -529z" />
    <glyph glyph-name="uni063D.init" unicode="&#x63d;" horiz-adv-x="703" 
d="M0 0q-17 0 -17 17v122q0 17 17 17q151 0 290 20.5t211 54.5q-21 82 -74 225q-39 106 -39 137q0 45 36.5 92t97.5 81q9 -60 22.5 -119l25.5 -116t20.5 -110t8.5 -100q0 -71 -71 -208q-84 -51 -232.5 -82t-295.5 -31zM394 866zM360 -60zM360 -106zM264 889q-19 2 -33.5 18
t-14.5 46q0 15 30 75q46 88 83 195q40 26 109 35q101 -216 177 -324l-33 -9q-22 -6 -39 -6q-33 0 -61 28t-60 85.5t-55 116.5q-9 -58 -42.5 -140t-60.5 -120zM394 866zM365 1308zM336 -259q-37 -59 -121 -140q-92 74 -136 125q54 50 132 138q18 -19 125 -123zM645 -230
q-37 -58 -123 -139q-89 71 -135 125q46 42 132 138q18 -20 126 -124zM363 -265zM359 -106zM365 -419z" />
    <glyph glyph-name="uni063D.medi" unicode="&#x63d;" horiz-adv-x="738" 
d="M547 466q28 0 50 -16q-37 -89 -65 -149t-34 -67q69 -44 128.5 -61t129.5 -17q17 0 17 -17v-122q0 -17 -17 -17q-189 0 -324 119l-33 -44q-21 -23 -148.5 -49t-250.5 -26q-17 0 -17 17v122q0 17 17 17q127 0 215.5 11t125 37t107.5 163l36 66q18 33 63 33zM443 566z
M387 -60zM387 -106zM312 590q-19 2 -33.5 18t-14.5 46q0 15 30 75q46 88 83 195q40 26 109 35q101 -216 177 -324l-33 -9q-22 -6 -39 -6q-33 0 -61 28t-60 85.5t-55 116.5q-9 -58 -42.5 -140t-60.5 -120zM442 567zM413 1009zM364 -259q-37 -59 -121 -140q-92 74 -136 125
q54 50 132 138q18 -19 125 -123zM673 -230q-37 -58 -123 -139q-89 71 -135 125q46 42 132 138q18 -20 126 -124zM391 -265zM387 -106zM393 -419z" />
    <glyph glyph-name="uni063D.fina" unicode="&#x63d;" horiz-adv-x="1407" 
d="M1334 -184q0 -79 -113 -161t-293 -135.5t-348 -53.5q-210 0 -325.5 100.5t-115.5 284.5q0 59 7.5 111.5t32.5 153.5l75 -18q-23 -90 -23 -146q0 -150 95 -233.5t259 -83.5q201 0 312 17.5t200.5 56.5t163.5 106l-41 23q-323 171 -323 214q0 25 14 58t32 56.5t27 23.5
q73 -15 195 -24.5t254 -9.5q23 0 23 -23v-113q0 -20 -23 -20q-70 0 -159 9.5t-157 26.5l183 -99q31 -19 39.5 -50t8.5 -71zM687 320zM98 -517zM580 -634zM557 343q-19 2 -33.5 18t-14.5 46q0 15 30 75q46 88 83 195q40 26 109 35q101 -216 177 -324l-33 -9q-22 -6 -39 -6
q-33 0 -61 28t-60 85.5t-55 116.5q-9 -58 -42.5 -140t-60.5 -120zM687 320zM658 762z" />
    <glyph glyph-name="uni063E.init" unicode="&#x63e;" horiz-adv-x="564" 
d="M0 0q-17 0 -17 17v122q0 17 17 17q93 0 191 20.5t171 54.5q-26 95 -74 225q-39 106 -39 137q0 45 36.5 92t97.5 81q9 -58 48 -235q29 -135 29 -210q0 -30 -19 -86.5t-53 -121.5q-189 -113 -388 -113zM284 866zM260 -60zM260 -106zM251 1006q-37 -59 -121 -140
q-92 74 -136 125q54 50 132 138q24 -25 125 -123zM560 1035q-38 -61 -123 -140q-87 69 -135 126q22 20 132 138q24 -26 126 -124zM284 846zM274 1209zM284 866zM237 -259q-37 -59 -121 -140q-92 74 -136 125q54 50 132 138q18 -19 125 -123zM546 -230q-37 -58 -123 -139
q-89 71 -135 125q46 42 132 138q18 -20 126 -124zM264 -265zM260 -106zM266 -419z" />
    <glyph glyph-name="uni063E.medi" unicode="&#x63e;" horiz-adv-x="738" 
d="M547 466q28 0 50 -16q-37 -89 -65 -149t-34 -67q69 -44 128.5 -61t129.5 -17q17 0 17 -17v-122q0 -17 -17 -17q-189 0 -324 119l-33 -44q-21 -23 -148.5 -49t-250.5 -26q-17 0 -17 17v122q0 17 17 17q127 0 215.5 11t125 37t107.5 163l36 66q18 33 63 33zM443 566z
M387 -60zM387 -106zM410 706q-37 -59 -121 -140q-92 74 -136 125q54 50 132 138q24 -25 125 -123zM719 735q-38 -61 -123 -140q-87 69 -135 126q22 20 132 138q24 -26 126 -124zM443 546zM433 909zM443 566zM364 -260q-37 -59 -121 -140q-92 74 -136 125q54 50 132 138
q18 -19 125 -123zM673 -231q-37 -58 -123 -139q-89 71 -135 125q46 42 132 138q18 -20 126 -124zM391 -266zM387 -107zM393 -420z" />
    <glyph glyph-name="uni063E.fina" unicode="&#x63e;" horiz-adv-x="1407" 
d="M1334 -184q0 -79 -113 -161t-293 -135.5t-348 -53.5q-210 0 -325.5 100.5t-115.5 284.5q0 59 7.5 111.5t32.5 153.5l75 -18q-23 -90 -23 -146q0 -150 95 -233.5t259 -83.5q201 0 312 17.5t200.5 56.5t163.5 106l-41 23q-323 171 -323 214q0 25 14 58t32 56.5t27 23.5
q73 -15 195 -24.5t254 -9.5q23 0 23 -23v-113q0 -20 -23 -20q-70 0 -159 9.5t-157 26.5l183 -99q31 -19 39.5 -50t8.5 -71zM687 320zM98 -517zM580 -634zM654 460q-37 -59 -121 -140q-92 74 -136 125q54 50 132 138q24 -25 125 -123zM963 489q-38 -61 -123 -140
q-87 69 -135 126q22 20 132 138q24 -26 126 -124zM687 300zM677 663zM687 320z" />
    <glyph glyph-name="uni063F.init" unicode="&#x63f;" horiz-adv-x="679" 
d="M0 0q-17 0 -17 17v122q0 17 17 17q93 0 191 20.5t171 54.5q-26 95 -74 225q-39 106 -39 137q0 45 36.5 92t97.5 81q9 -58 48 -235q29 -135 29 -210q0 -30 -19 -86.5t-53 -121.5q-189 -113 -388 -113zM284 866zM260 -60zM260 -106zM395 1136q-59 -69 -106 -102
q-57 35 -116 102q62 59 110 113q38 -51 112 -113zM252 966q-36 -56 -109 -126q-80 63 -123 112q49 46 119 125q22 -23 113 -111zM545 992q-39 -60 -110 -126q-71 56 -121 113q37 34 118 125zM284 866zM283 1299zM238 -259q-37 -59 -121 -140q-92 74 -136 125q54 50 132 138
q18 -19 125 -123zM547 -230q-37 -58 -123 -139q-89 71 -135 125q46 42 132 138q18 -20 126 -124zM265 -265zM261 -106zM267 -419z" />
    <glyph glyph-name="uni063F.medi" unicode="&#x63f;" horiz-adv-x="738" 
d="M547 466q28 0 50 -16q-37 -89 -65 -149t-34 -67q69 -44 128.5 -61t129.5 -17q17 0 17 -17v-122q0 -17 -17 -17q-189 0 -324 119l-33 -44q-21 -23 -148.5 -49t-250.5 -26q-17 0 -17 17v122q0 17 17 17q127 0 215.5 11t125 37t107.5 163l36 66q18 33 63 33zM443 566z
M387 -60zM387 -106zM554 836q-59 -69 -106 -102q-57 35 -116 102q62 59 110 113q38 -51 112 -113zM411 666q-36 -56 -109 -126q-80 63 -123 112q49 46 119 125q22 -23 113 -111zM704 692q-39 -60 -110 -126q-71 56 -121 113q37 34 118 125zM443 566zM442 999zM363 -259
q-37 -59 -121 -140q-92 74 -136 125q54 50 132 138q18 -19 125 -123zM672 -230q-37 -58 -123 -139q-89 71 -135 125q46 42 132 138q18 -20 126 -124zM390 -265zM386 -106zM392 -419z" />
    <glyph glyph-name="uni063F.fina" unicode="&#x63f;" horiz-adv-x="1407" 
d="M1334 -184q0 -79 -113 -161t-293 -135.5t-348 -53.5q-210 0 -325.5 100.5t-115.5 284.5q0 59 7.5 111.5t32.5 153.5l75 -18q-23 -90 -23 -146q0 -150 95 -233.5t259 -83.5q201 0 312 17.5t200.5 56.5t163.5 106l-41 23q-323 171 -323 214q0 25 14 58t32 56.5t27 23.5
q73 -15 195 -24.5t254 -9.5q23 0 23 -23v-113q0 -20 -23 -20q-70 0 -159 9.5t-157 26.5l183 -99q31 -19 39.5 -50t8.5 -71zM687 320zM98 -517zM580 -634zM798 590q-59 -69 -106 -102q-57 35 -116 102q62 59 110 113q38 -51 112 -113zM655 420q-36 -56 -109 -126
q-80 63 -123 112q49 46 119 125q22 -23 113 -111zM948 446q-39 -60 -110 -126q-71 56 -121 113q37 34 118 125zM687 320zM686 753z" />
    <glyph glyph-name="uni0641" unicode="&#x641;" horiz-adv-x="1737" arabic-form="isolated" 
d="M656 0q-517 0 -517 349q0 127 28 225h74q-8 -51 -8 -101q0 -125 46.5 -188t149 -96t271.5 -33q203 0 451 42t384 103q-10 83 -28 160q-136 -112 -290 -112q-90 0 -147 67t-57 172q0 157 75.5 277t178.5 120q104 0 186.5 -74.5t131 -213t48.5 -306.5q0 -70 -72 -208
q-136 -87 -388 -135t-517 -48zM1236 811q-60 0 -102.5 -56.5t-42.5 -126.5q0 -65 42 -94.5t133 -29.5q99 0 215 52q-40 124 -102.5 189.5t-142.5 65.5zM1326 -106zM1217 1085zM1349 1255q-48 -69 -132 -150q-91 72 -147 133q105 105 143 150q65 -71 136 -133zM1217 1085z
M1213 1438z" />
    <glyph glyph-name="uni0642" unicode="&#x642;" horiz-adv-x="1325" arabic-form="isolated" 
d="M1116 -104q-3 127 -22 227l-10 -9q-122 -114 -271 -114q-117 0 -186.5 72.5t-69.5 191.5q0 104 42 206t110 164t137 62q97 0 185.5 -87t139 -227.5t50.5 -297.5q0 -129 -51 -239t-148 -195t-227.5 -135.5t-249.5 -50.5q-192 0 -299 101t-107 284q0 59 7.5 111.5
t32.5 153.5l75 -18q-23 -90 -23 -146q0 -154 82 -235.5t237 -81.5q107 0 220.5 33t205 92.5t140.5 137.5zM814 522q-42 0 -83.5 -32t-68 -80t-26.5 -89q0 -74 59 -114t167 -40q105 0 209 48q-27 91 -69.5 163t-93 108t-94.5 36zM806 796zM68 -537zM595 -636zM773 936
q-37 -59 -121 -140q-92 74 -136 125q54 50 132 138q24 -25 125 -123zM1082 965q-38 -61 -123 -140q-87 69 -135 126q22 20 132 138q24 -26 126 -124zM806 776zM796 1139zM806 796z" />
    <glyph glyph-name="uni0643" unicode="&#x643;" horiz-adv-x="1142" arabic-form="isolated" 
d="M463 0q-130 0 -279 12t-149 28q0 36 10 87t23 71q80 -18 201.5 -30t231.5 -12q220 0 442 40l-23 121l-62 366q-26 132 -49 300t-23 230q0 67 31 106t104 55q19 -75 37 -128l36 -115l-54 -46l27 -271q25 -208 39 -376.5t14 -216.5q0 -57 -20.5 -101t-52.5 -86
q-230 -34 -484 -34zM537 -106zM555 549q-54 1 -92.5 6t-63 16t-36 29.5t-11.5 47.5q0 24 14 51.5t37 51t51.5 39.5t58.5 16q55 0 68 -57l-33 -14q-9 10 -23 10q-12 0 -28.5 -9t-32 -23.5t-28.5 -32t-17 -35.5q19 -9 42.5 -13.5t46.5 -8t44.5 -8.5t35.5 -15q11 -7 15 -17
t4 -21q0 -18 -22 -46.5t-56.5 -54.5t-77 -45t-83.5 -19q-25 0 -36 12t-11 29q54 5 104 23.5t85 42.5q16 11 27.5 22t17.5 23zM473 856z" />
    <glyph glyph-name="uni0644" unicode="&#x644;" horiz-adv-x="1219" arabic-form="isolated" 
d="M1015 -111l-52 331q-87 520 -114.5 724.5t-27.5 269.5q0 69 32 107t102 53q3 -13 6 -24t67 -219l-48 -42l4 -32l67 -607q40 -305 40 -484q0 -127 -79 -242t-217 -187.5t-285 -72.5q-175 0 -273 100.5t-98 284.5q0 59 7.5 111.5t32.5 153.5l75 -18q-23 -90 -23 -146
q0 -150 75 -233.5t209 -83.5q97 0 202 34t185 93t113 129zM818 1474zM68 -537zM471 969zM630 -636z" />
    <glyph glyph-name="uni0645" unicode="&#x645;" horiz-adv-x="1001" arabic-form="isolated" 
d="M315 -548q-57 -45 -137 -77q-1 158 -21 383q-18 207 -18 252q0 39 20 88t45 102q113 35 231 52t298 17l-43 62q-128 214 -222 214q-48 0 -92.5 -35.5t-96.5 -116.5l-67 33q54 138 131.5 213.5t163.5 75.5q46 0 90.5 -32.5t96.5 -101.5q67 -91 120.5 -152t107.5 -102
l-78 -209q-217 0 -365 -19.5t-262 -58.5l14 -94l27 -145q39 -200 57 -349zM455 815zM600 -102z" />
    <glyph glyph-name="uni0646" unicode="&#x646;" horiz-adv-x="1201" arabic-form="isolated" 
d="M510 -536q-175 0 -273 100.5t-98 284.5q0 59 7.5 111.5t32.5 153.5l75 -18q-23 -90 -23 -146q0 -150 75 -233.5t209 -83.5q152 0 303 74t202 182q-134 293 -134 391q0 53 30 96t104 87q9 -72 47 -265q29 -147 29 -232q0 -126 -80 -241t-219 -188t-287 -73zM538 463z
M68 -537zM540 -636zM670 633q-48 -69 -132 -150q-91 72 -147 133q105 105 143 150q65 -71 136 -133zM538 463zM534 816z" />
    <glyph glyph-name="uni0647" unicode="&#x647;" horiz-adv-x="836" arabic-form="isolated" 
d="M290 738q0 32 15.5 60t39.5 38q92 -32 179.5 -108.5t147 -180t59.5 -187.5q0 -61 -48 -167t-91 -136q-86 -57 -202 -57q-115 0 -183 67.5t-68 190.5q0 96 48.5 192.5t153.5 196.5q-32 19 -41.5 43t-9.5 48zM233 318q0 -73 47 -114t132 -41q55 0 120 30t98 61
q-42 202 -231 349q-76 -71 -121 -148.5t-45 -136.5zM346 936zM441 -60zM441 -106z" />
    <glyph glyph-name="uni0648" unicode="&#x648;" horiz-adv-x="959" arabic-form="isolated" 
d="M395 -416q-66 0 -168 41.5t-157 89.5l29 67q110 -38 249 -38q154 0 264 90.5t166 265.5l-2 17l-4 -3q-55 -53 -125.5 -83.5t-145.5 -30.5q-118 0 -186.5 72.5t-68.5 191.5q0 104 42 206t110 164t137 62q79 0 151.5 -71t120.5 -201.5t48 -258.5q0 -145 -65 -285t-170 -218
t-225 -78zM503 522q-42 0 -83.5 -31.5t-68.5 -80t-27 -89.5q0 -74 59 -114t167 -40q51 0 93.5 8.5t114.5 38.5q-35 134 -107 221t-148 87zM525 796zM396 -516zM514 1174z" />
    <glyph glyph-name="uni0649" unicode="&#x649;" horiz-adv-x="1266" arabic-form="isolated" 
d="M1121 -98q-52 9 -108 14q-154 12 -231 37.5t-116.5 83.5t-39.5 149q0 94 66 214.5t166.5 208t179.5 87.5q69 0 104 -47.5t54 -130.5l-73 -21q-15 20 -28 26t-38 6q-54 0 -135 -56.5t-143 -137.5t-79 -157q59 -54 225 -77q157 -22 213 -63t56 -134q0 -94 -113 -200
t-274 -173t-297 -67q-175 0 -273 100.5t-98 284.5q0 59 7.5 111.5t32.5 153.5l75 -18q-23 -90 -23 -146q0 -150 75 -233.5t209 -83.5q109 0 244.5 39.5t232 100.5t129.5 129zM420 493zM68 -537zM560 -636z" />
    <glyph glyph-name="uni064A" unicode="&#x64a;" horiz-adv-x="1266" arabic-form="isolated" 
d="M1121 -98q-52 9 -108 14q-154 12 -231 37.5t-116.5 83.5t-39.5 149q0 94 66 214.5t166.5 208t179.5 87.5q69 0 104 -47.5t54 -130.5l-73 -21q-15 20 -28 26t-38 6q-54 0 -135 -56.5t-143 -137.5t-79 -157q59 -54 225 -77q157 -22 213 -63t56 -134q0 -94 -113 -200
t-274 -173t-297 -67q-175 0 -273 100.5t-98 284.5q0 59 7.5 111.5t32.5 153.5l75 -18q-23 -90 -23 -146q0 -150 75 -233.5t209 -83.5q109 0 244.5 39.5t232 100.5t129.5 129zM420 493zM68 -537zM560 -636zM537 -788q-37 -59 -121 -140q-92 74 -136 125q54 50 132 138
q18 -19 125 -123zM846 -759q-37 -58 -123 -139q-89 71 -135 125q46 42 132 138q18 -20 126 -124zM564 -794zM560 -635zM566 -948z" />
    <glyph glyph-name="uni066E.init" unicode="&#x66e;" horiz-adv-x="564" 
d="M0 0q-17 0 -17 17v122q0 17 17 17q93 0 191 20.5t171 54.5q-26 95 -74 225q-39 106 -39 137q0 45 36.5 92t97.5 81q9 -58 48 -235q29 -135 29 -210q0 -30 -19 -86.5t-53 -121.5q-189 -113 -388 -113zM284 866zM260 -60zM260 -106z" />
    <glyph glyph-name="uni066E.medi" unicode="&#x66e;" horiz-adv-x="599" 
d="M0 0q-17 0 -17 17v122q0 17 17 17q75 0 129 14.5t84 42t96 154.5l36 66q18 33 63 33q28 0 50 -16q-44 -108 -99 -217q71 -43 128.5 -60t128.5 -17q17 0 17 -17v-122q0 -17 -17 -17q-190 0 -323 120l-34 -45q-21 -26 -98 -50.5t-161 -24.5zM303 566zM347 -60zM347 -106z
" />
    <glyph glyph-name="uni066E.fina" unicode="&#x66e;" horiz-adv-x="1673" 
d="M1694 0q-207 0 -350 145q-125 -67 -306.5 -106t-394.5 -39q-241 0 -370.5 87t-129.5 262q0 127 28 225h73q-2 -8 -4.5 -42t-2.5 -59q0 -119 45 -184t143.5 -99t260.5 -34q172 0 365 38t245 75q25 18 39.5 36.5t33.5 52.5l29 53q19 32 64 32q30 0 49 -15
q-56 -137 -85 -187q68 -45 129.5 -65t138.5 -20q17 0 17 -17v-122q0 -17 -17 -17zM828 624zM937 -106z" />
    <glyph glyph-name="uni066F.init" unicode="&#x66f;" horiz-adv-x="860" 
d="M658 266q-10 84 -28 161q-62 -53 -138.5 -83t-152.5 -30q-90 0 -146.5 68t-56.5 171q0 157 75.5 277t178.5 120q106 0 188 -76t130 -216t48 -302q0 -70 -72 -208q-124 -77 -278 -112.5t-404 -35.5q-19 0 -19 19v118q0 19 19 19q221 0 374 26.5t282 83.5zM359 776
q-62 0 -103.5 -56.5t-41.5 -126.5q0 -64 41.5 -94t132.5 -30q100 0 216 52q-40 124 -102.5 189.5t-142.5 65.5zM402 1050zM464 -60zM464 -106z" />
    <glyph glyph-name="uni066F.medi" unicode="&#x66f;" horiz-adv-x="792" 
d="M178 163q-75 88 -75 176q0 53 12 122.5t24 91.5q53 97 139 155t185 58q53 0 102.5 -51.5t80.5 -140t31 -175.5q0 -132 -88 -233q65 -10 220 -10q18 0 18 -17v-122q0 -17 -18 -17q-252 0 -411 63l-9 3q-70 -35 -163 -50.5t-224 -15.5q-19 0 -19 19v118q0 19 19 19
q113 0 176 7zM597 336q-5 51 -33 112t-63 102.5t-57 41.5q-58 0 -137 -69t-128 -165q85 -99 211 -147q113 43 207 125zM409 866zM397 -60zM397 -106z" />
    <glyph glyph-name="uni066F.fina" unicode="&#x66f;" horiz-adv-x="1314" 
d="M545 -536q-192 0 -299 101t-107 284q0 59 7.5 111.5t32.5 153.5l75 -18q-23 -90 -23 -146q0 -154 82 -235.5t237 -81.5q181 0 332.5 70.5t233.5 192.5l-7 106q-107 0 -232.5 13.5t-192 46t-97 85.5t-30.5 134q0 104 42 206t110 164t137 62q87 0 169.5 -78t136.5 -208
t66 -271h114q17 0 17 -17v-122q0 -17 -17 -17h-116q-21 -152 -117.5 -272.5t-250 -192t-303.5 -71.5zM814 539q-42 0 -84 -32.5t-68 -79.5t-26 -88q0 -42 19.5 -72.5t65.5 -52.5t116 -36.5t247 -18.5q-47 189 -119 284.5t-151 95.5zM765 813zM68 -537zM595 -636z" />
    <glyph glyph-name="uni0671" unicode="&#x671;" horiz-adv-x="487" arabic-form="isolated" 
d="M322 682v-128q0 -198 -14 -537l-94 -17q-13 718 -56 1192l-1 26q0 65 32.5 103.5t102.5 52.5q3 -13 6 -24t67 -219l-55 -47l1 -10q11 -220 11 -392zM250 1474zM269 -106zM273 1495q-38 0 -73.5 11t-87.5 38q-38 -17 -70 -49l-28 22q33 51 60.5 77t59.5 26q10 0 25 -7
l11 -5q44 65 80 90.5t79 25.5q36 0 62 -34.5t26 -85.5q0 -29 -17 -69q-35 -25 -62 -32.5t-65 -7.5zM273 1577q44 0 60.5 4t49.5 17q-24 48 -69 48q-23 0 -45.5 -11t-61.5 -44q42 -14 66 -14zM249 1474zM279 1774z" />
    <glyph glyph-name="uni0672.fina" unicode="&#x672;" horiz-adv-x="518" 
d="M553 139v-122q0 -17 -17 -17q-121 0 -200.5 47.5t-89.5 130.5q-33 262 -70 809l-20 273q57 58 138 114q14 -312 22 -883l7 -282q96 -53 213 -53q17 0 17 -17zM232 1474zM355 -106zM171 1494q-21 0 -50 17q-27 15 -44 15q-30 0 -66 -41l-29 22q18 32 48 59t53 27l64 -15
l25 -3q15 0 33 6q-75 38 -75 97q0 36 23 72.5t58.5 61t64.5 24.5q33 0 52 -19t19 -53q0 -30 -10 -55l-36 9l1 7q0 8 -6.5 17t-17.5 9q-22 0 -49.5 -21.5t-42.5 -49.5q22 -22 55.5 -37.5t57.5 -15.5q36 0 81 20l-3 -75q-60 -35 -119 -56.5t-87 -21.5zM232 1474zM244 1886z
" />
    <glyph glyph-name="uni0673.fina" unicode="&#x673;" horiz-adv-x="518" 
d="M553 139v-122q0 -17 -17 -17q-121 0 -200.5 47.5t-89.5 130.5q-33 262 -70 809l-20 273q57 58 138 114q14 -312 22 -883l7 -282q96 -53 213 -53q17 0 17 -17zM232 1474zM355 -106zM315 -396q20 0 33 6q-75 38 -75 97q0 36 23.5 72.5t58.5 60.5t64 24q34 0 53 -19t19 -53
q0 -25 -11 -55l-36 9l1 8q0 8 -6.5 16.5t-17.5 8.5q-23 0 -49 -20t-43 -51q22 -22 55 -37t59 -15q36 0 81 20l-4 -76q-58 -34 -116 -55.5t-90 -21.5q-23 0 -50 16q-24 15 -44 15q-30 0 -66 -41l-29 23q21 35 50 60t51 25q20 0 41 -9q29 -8 48 -8zM355 -106zM393 -497z" />
    <glyph glyph-name="uni0675.fina" unicode="&#x675;" horiz-adv-x="518" 
d="M553 139v-122q0 -17 -17 -17q-121 0 -200.5 47.5t-89.5 130.5q-33 262 -70 809l-20 273q57 58 138 114q14 -312 22 -883l7 -282q96 -53 213 -53q17 0 17 -17zM232 1474zM355 -106zM560 1345l1 8q0 9 -7.5 17.5t-18.5 8.5q-32 0 -58 -23t-38 -54q32 -41 97 -41
q37 0 101 13l-4 -78q-85 -22 -139.5 -44.5t-113.5 -54.5l-5 79l81 46q-75 13 -75 82q0 58 48.5 109.5t102.5 51.5q80 0 80 -76q0 -27 -14 -55zM525 1126zM505 1515z" />
    <glyph glyph-name="uni0676.fina" unicode="&#x676;" horiz-adv-x="959" 
d="M395 -416q-66 0 -168 41.5t-157 89.5l29 67q110 -38 249 -38q127 0 225.5 62.5t165.5 196.5q-200 7 -299.5 34t-146.5 85.5t-47 158.5q0 104 42 206t110 164t137 62q84 0 157 -76t118 -208.5t45 -263.5v-9h122q17 0 17 -17v-122q0 -17 -17 -17h-144
q-30 -117 -96.5 -214.5t-155.5 -149.5t-186 -52zM503 539q-42 0 -84.5 -32.5t-68.5 -80.5t-26 -87q0 -72 57 -109t166 -57q14 -3 31.5 -5t193.5 -10q-25 160 -103 270.5t-166 110.5zM495 813zM445 -516zM515 1090zM883 990l1 8q0 9 -7.5 17.5t-18.5 8.5q-32 0 -58 -23
t-38 -54q32 -41 97 -41q37 0 101 13l-4 -78q-85 -22 -139.5 -44.5t-113.5 -54.5l-5 79l81 46q-75 13 -75 82q0 58 48.5 109.5t102.5 51.5q80 0 80 -76q0 -27 -14 -55zM848 771zM828 1160z" />
    <glyph glyph-name="uni0677" unicode="&#x677;" horiz-adv-x="959" arabic-form="isolated" 
d="M395 -416q-66 0 -168 41.5t-157 89.5l29 67q110 -38 249 -38q154 0 264 90.5t166 265.5l-2 17l-4 -3q-55 -53 -125.5 -83.5t-145.5 -30.5q-118 0 -186.5 72.5t-68.5 191.5q0 104 42 206t110 164t137 62q79 0 151.5 -71t120.5 -201.5t48 -258.5q0 -145 -65 -285t-170 -218
t-225 -78zM503 522q-42 0 -83.5 -31.5t-68.5 -80t-27 -89.5q0 -74 59 -114t167 -40q51 0 93.5 8.5t114.5 38.5q-35 134 -107 221t-148 87zM525 796zM396 -516zM514 1174zM108 783q105 19 192 77q-76 34 -76 97q0 49 39 87.5t80 38.5q31 0 50.5 -34.5t19.5 -96.5
q0 -27 -9 -52l64 -4q-3 -32 -22 -44t-60 -12l-25 2q-52 -52 -104 -81.5t-90 -29.5q-27 0 -43 13.5t-16 38.5zM362 948q0 27 -10.5 48.5t-33.5 21.5q-18 0 -31.5 -11t-13.5 -20q0 -46 80 -75l4 9q5 16 5 27zM318 731zM284 1133zM484 1133zM518 711zM883 1015l1 8
q0 9 -7.5 17.5t-18.5 8.5q-32 0 -58 -23t-38 -54q32 -41 97 -41q37 0 101 13l-4 -78q-85 -22 -139.5 -44.5t-113.5 -54.5l-5 79l81 46q-75 13 -75 82q0 58 48.5 109.5t102.5 51.5q80 0 80 -76q0 -27 -14 -55zM848 796zM828 1185z" />
    <glyph glyph-name="uni0678.init" unicode="&#x678;" horiz-adv-x="720" 
d="M0 0q-17 0 -17 17v122q0 17 17 17q93 0 191 20.5t171 54.5q-26 95 -74 225q-39 106 -39 137q0 45 36.5 92t97.5 81q9 -58 48 -235q29 -135 29 -210q0 -30 -19 -86.5t-53 -121.5q-189 -113 -388 -113zM284 866zM260 -60zM260 -106zM617 1131l2 10q0 9 -8 18.5t-22 9.5
q-34 0 -63.5 -25.5t-41.5 -60.5q34 -44 104 -44q50 0 115 14l-5 -88q-82 -21 -138.5 -42.5t-141.5 -67.5l-5 88l43 26l46 25q-83 16 -83 91q0 65 53.5 122t113.5 57q49 0 69.5 -24.5t20.5 -59.5q0 -26 -16 -61zM550 1314zM583 865z" />
    <glyph glyph-name="uni0678.medi" unicode="&#x678;" horiz-adv-x="680" 
d="M0 0q-17 0 -17 17v122q0 17 17 17q75 0 129 14.5t84 42t96 154.5l36 66q18 33 63 33q28 0 50 -16q-44 -108 -99 -217q71 -43 128.5 -60t128.5 -17q17 0 17 -17v-122q0 -17 -17 -17q-190 0 -323 120l-34 -45q-21 -26 -98 -50.5t-161 -24.5zM303 566zM347 -60zM347 -106z
M615 881l2 10q0 9 -8 18.5t-22 9.5q-34 0 -63.5 -25.5t-41.5 -60.5q34 -44 104 -44q50 0 115 14l-5 -88q-82 -21 -138.5 -42.5t-141.5 -67.5l-5 88l43 26l46 25q-83 16 -83 91q0 65 53.5 122t113.5 57q49 0 69.5 -24.5t20.5 -59.5q0 -26 -16 -61zM548 1064zM581 615zM614 0
q-17 0 -17 17v122q0 17 17 17h81q18 0 18 -17v-122q0 -17 -18 -17h-81zM717 926zM717 -294z" />
    <glyph glyph-name="uni0678.fina" unicode="&#x678;" horiz-adv-x="1407" 
d="M1334 -184q0 -79 -113 -161t-293 -135.5t-348 -53.5q-210 0 -325.5 100.5t-115.5 284.5q0 59 7.5 111.5t32.5 153.5l75 -18q-23 -90 -23 -146q0 -150 95 -233.5t259 -83.5q201 0 312 17.5t200.5 56.5t163.5 106l-41 23q-323 171 -323 214q0 25 14 58t32 56.5t27 23.5
q73 -15 195 -24.5t254 -9.5q23 0 23 -23v-113q0 -20 -23 -20q-70 0 -159 9.5t-157 26.5l183 -99q31 -19 39.5 -50t8.5 -71zM687 320zM98 -517zM580 -634zM981 586l2 10q0 9 -8 18.5t-22 9.5q-34 0 -63.5 -25.5t-41.5 -60.5q34 -44 104 -44q50 0 115 14l-5 -88
q-82 -21 -138.5 -42.5t-141.5 -67.5l-5 88l43 26l46 25q-83 16 -83 91q0 65 53.5 122t113.5 57q49 0 69.5 -24.5t20.5 -59.5q0 -26 -16 -61zM914 769zM947 320z" />
    <glyph glyph-name="uni0679" unicode="&#x679;" horiz-adv-x="1581" arabic-form="isolated" 
d="M643 0q-241 0 -370.5 87t-129.5 262q0 127 28 225h73q-2 -8 -4.5 -42t-2.5 -59q0 -119 45 -184t143.5 -99t260.5 -34q191 0 373 39t323 106q-22 85 -74 225q-39 104 -39 137q0 44 35 90t100 83q9 -60 22 -119l25 -116t20.5 -110t8.5 -100q0 -71 -71 -208
q-135 -87 -329.5 -135t-436.5 -48zM748 816zM774 -60zM774 -106zM642 1008q-49 176 -49 195q0 17 24.5 36.5t59.5 29.5q12 -44 23 -68l-17 -13v-28l5 -105q56 48 81.5 62t45.5 14q42 0 90.5 -41.5t48.5 -72.5q0 -66 -60 -108.5t-146 -42.5q-138 0 -250 66l13 50
q35 -7 95 -15zM752 956q48 0 82.5 9t74.5 25q-35 28 -58.5 36t-46.5 8q-59 0 -146 -73zM746 1048zM807 1319zM748 846zM748 816z" />
    <glyph glyph-name="uni067A" unicode="&#x67a;" horiz-adv-x="1581" arabic-form="isolated" 
d="M643 0q-241 0 -370.5 87t-129.5 262q0 127 28 225h73q-2 -8 -4.5 -42t-2.5 -59q0 -119 45 -184t143.5 -99t260.5 -34q191 0 373 39t323 106q-22 85 -74 225q-39 104 -39 137q0 44 35 90t100 83q9 -60 22 -119l25 -116t20.5 -110t8.5 -100q0 -71 -71 -208
q-135 -87 -329.5 -135t-436.5 -48zM748 816zM774 -60zM774 -106zM858 963q-36 -56 -109 -126q-77 60 -122 112q34 33 119 125q23 -25 112 -111zM833 1218q-37 -57 -110 -125q-84 68 -122 113q40 36 120 123q23 -25 112 -111zM749 817zM721 1379z" />
    <glyph glyph-name="uni067B" unicode="&#x67b;" horiz-adv-x="1581" arabic-form="isolated" 
d="M643 0q-241 0 -370.5 87t-129.5 262q0 127 28 225h73q-2 -8 -4.5 -42t-2.5 -59q0 -119 45 -184t143.5 -99t260.5 -34q191 0 373 39t323 106q-22 85 -74 225q-39 104 -39 137q0 44 35 90t100 83q9 -60 22 -119l25 -116t20.5 -110t8.5 -100q0 -71 -71 -208
q-135 -87 -329.5 -135t-436.5 -48zM748 816zM774 -60zM774 -106zM911 -493q-36 -56 -109 -126q-85 69 -122 113q33 31 119 124q30 -32 112 -111zM886 -238q-37 -57 -110 -125q-84 68 -122 113q50 46 120 124q24 -28 112 -112zM784 -372zM774 -106zM802 -639z" />
    <glyph glyph-name="uni067C.init" unicode="&#x67c;" horiz-adv-x="564" 
d="M0 0q-17 0 -17 17v122q0 17 17 17q93 0 191 20.5t171 54.5q-26 95 -74 225q-39 106 -39 137q0 45 36.5 92t97.5 81q9 -58 48 -235q29 -135 29 -210q0 -30 -19 -86.5t-53 -121.5q-189 -113 -388 -113zM284 866zM260 -60zM260 -106zM395 -217q0 -31 -10.5 -55.5
t-28.5 -40.5t-42.5 -25t-54.5 -9q-29 0 -54 9t-42.5 25t-27.5 40t-10 54q0 31 10 54.5t27.5 39.5t42.5 25t55 9q29 0 53.5 -9t42.5 -25t28.5 -39t10.5 -53zM317 -219q0 29 -16 44t-41 15q-26 0 -42.5 -15t-16.5 -44q0 -26 15 -42t43 -16q27 0 42.5 16t15.5 42zM269 -367z
M260 -61zM251 1006q-37 -59 -121 -140q-92 74 -136 125q54 50 132 138q24 -25 125 -123zM560 1035q-38 -61 -123 -140q-87 69 -135 126q22 20 132 138q24 -26 126 -124zM284 846zM274 1209zM284 866z" />
    <glyph glyph-name="uni067C.medi" unicode="&#x67c;" horiz-adv-x="738" 
d="M547 466q28 0 50 -16q-37 -89 -65 -149t-34 -67q69 -44 128.5 -61t129.5 -17q17 0 17 -17v-122q0 -17 -17 -17q-189 0 -324 119l-33 -44q-21 -23 -148.5 -49t-250.5 -26q-17 0 -17 17v122q0 17 17 17q127 0 215.5 11t125 37t107.5 163l36 66q18 33 63 33zM443 566z
M387 -60zM387 -106zM410 706q-37 -59 -121 -140q-92 74 -136 125q54 50 132 138q24 -25 125 -123zM719 735q-38 -61 -123 -140q-87 69 -135 126q22 20 132 138q24 -26 126 -124zM443 546zM433 909zM443 566zM522 -262q0 -31 -10.5 -55.5t-28.5 -40.5t-42.5 -25t-54.5 -9
q-29 0 -54 9t-42.5 25t-27.5 40t-10 54q0 31 10 54.5t27.5 39.5t42.5 25t55 9q29 0 53.5 -9t42.5 -25t28.5 -39t10.5 -53zM444 -264q0 29 -16 44t-41 15q-26 0 -42.5 -15t-16.5 -44q0 -26 15 -42t43 -16q27 0 42.5 16t15.5 42zM396 -412zM387 -106z" />
    <glyph glyph-name="uni067C.fina" unicode="&#x67c;" horiz-adv-x="1673" 
d="M1694 0q-207 0 -350 145q-125 -67 -306.5 -106t-394.5 -39q-241 0 -370.5 87t-129.5 262q0 127 28 225h73q-2 -8 -4.5 -42t-2.5 -59q0 -119 45 -184t143.5 -99t260.5 -34q172 0 365 38t245 75q25 18 39.5 36.5t33.5 52.5l29 53q19 32 64 32q30 0 49 -15
q-56 -137 -85 -187q68 -45 129.5 -65t138.5 -20q17 0 17 -17v-122q0 -17 -17 -17zM828 624zM937 -106zM795 764q-37 -59 -121 -140q-92 74 -136 125q54 50 132 138q24 -25 125 -123zM1104 793q-38 -61 -123 -140q-87 69 -135 126q22 20 132 138q24 -26 126 -124zM828 604z
M818 967zM828 624zM1072 -262q0 -31 -10.5 -55.5t-28.5 -40.5t-42.5 -25t-54.5 -9q-29 0 -54 9t-42.5 25t-27.5 40t-10 54q0 31 10 54.5t27.5 39.5t42.5 25t55 9q29 0 53.5 -9t42.5 -25t28.5 -39t10.5 -53zM994 -264q0 29 -16 44t-41 15q-26 0 -42.5 -15t-16.5 -44
q0 -26 15 -42t43 -16q27 0 42.5 16t15.5 42zM946 -412zM937 -106z" />
    <glyph glyph-name="uni067D.init" unicode="&#x67d;" horiz-adv-x="703" 
d="M0 0q-17 0 -17 17v122q0 17 17 17q151 0 290 20.5t211 54.5q-21 82 -74 225q-39 106 -39 137q0 45 36.5 92t97.5 81q9 -60 22.5 -119l25.5 -116t20.5 -110t8.5 -100q0 -71 -71 -208q-84 -51 -232.5 -82t-295.5 -31zM394 866zM360 -60zM360 -106zM353 1152
q-36 -56 -109 -126q-82 64 -123 113q47 43 119 124q22 -23 113 -111zM646 1178q-37 -57 -110 -125q-71 53 -122 112q34 32 120 125q30 -33 112 -112zM500 987q-65 -71 -106 -101q-64 43 -115 101q56 53 109 113q52 -65 112 -113zM394 866zM384 1320z" />
    <glyph glyph-name="uni067D.medi" unicode="&#x67d;" horiz-adv-x="738" 
d="M547 466q28 0 50 -16q-37 -89 -65 -149t-34 -67q69 -44 128.5 -61t129.5 -17q17 0 17 -17v-122q0 -17 -17 -17q-189 0 -324 119l-33 -44q-21 -23 -148.5 -49t-250.5 -26q-17 0 -17 17v122q0 17 17 17q127 0 215.5 11t125 37t107.5 163l36 66q18 33 63 33zM443 566z
M387 -60zM387 -106zM402 852q-36 -56 -109 -126q-82 64 -123 113q47 43 119 124q22 -23 113 -111zM695 878q-37 -57 -110 -125q-71 53 -122 112q34 32 120 125q30 -33 112 -112zM549 687q-65 -71 -106 -101q-64 43 -115 101q56 53 109 113q52 -65 112 -113zM443 566z
M433 1020z" />
    <glyph glyph-name="uni067D.fina" unicode="&#x67d;" horiz-adv-x="1673" 
d="M1694 0q-207 0 -350 145q-125 -67 -306.5 -106t-394.5 -39q-241 0 -370.5 87t-129.5 262q0 127 28 225h73q-2 -8 -4.5 -42t-2.5 -59q0 -119 45 -184t143.5 -99t260.5 -34q172 0 365 38t245 75q25 18 39.5 36.5t33.5 52.5l29 53q19 32 64 32q30 0 49 -15
q-56 -137 -85 -187q68 -45 129.5 -65t138.5 -20q17 0 17 -17v-122q0 -17 -17 -17zM828 624zM937 -106zM787 910q-36 -56 -109 -126q-82 64 -123 113q47 43 119 124q22 -23 113 -111zM1080 936q-37 -57 -110 -125q-71 53 -122 112q34 32 120 125q30 -33 112 -112zM934 745
q-65 -71 -106 -101q-64 43 -115 101q56 53 109 113q52 -65 112 -113zM828 624zM818 1078z" />
    <glyph glyph-name="uni067E" unicode="&#x67e;" horiz-adv-x="1581" arabic-form="isolated" 
d="M643 0q-241 0 -370.5 87t-129.5 262q0 127 28 225h73q-2 -8 -4.5 -42t-2.5 -59q0 -119 45 -184t143.5 -99t260.5 -34q191 0 373 39t323 106q-22 85 -74 225q-39 104 -39 137q0 44 35 90t100 83q9 -60 22 -119l25 -116t20.5 -110t8.5 -100q0 -71 -71 -208
q-135 -87 -329.5 -135t-436.5 -48zM748 816zM774 -60zM774 -106zM743 -243q-34 -53 -109 -125q-75 58 -122 113q28 25 119 124q24 -28 112 -112zM1037 -216q-37 -57 -110 -125q-76 57 -123 113q54 48 120 122zM897 -407q-66 -73 -107 -102q-57 35 -116 102q62 56 110 114
q31 -40 113 -114zM778 -237zM774 -106zM790 -529z" />
    <glyph glyph-name="uni067F" unicode="&#x67f;" horiz-adv-x="1581" arabic-form="isolated" 
d="M643 0q-241 0 -370.5 87t-129.5 262q0 127 28 225h73q-2 -8 -4.5 -42t-2.5 -59q0 -119 45 -184t143.5 -99t260.5 -34q191 0 373 39t323 106q-22 85 -74 225q-39 104 -39 137q0 44 35 90t100 83q9 -60 22 -119l25 -116t20.5 -110t8.5 -100q0 -71 -71 -208
q-135 -87 -329.5 -135t-436.5 -48zM748 816zM774 -60zM774 -106zM749 937q-45 -62 -87 -101q-64 49 -98 90q34 33 95 100q41 -45 90 -89zM729 1141q-31 -48 -88 -100q-64 51 -98 90q39 36 96 99q24 -26 90 -89zM955 937q-34 -53 -87 -101q-59 45 -98 90q34 33 95 100z
M935 1141q-31 -48 -88 -100q-64 51 -98 90q14 13 96 99q24 -26 90 -89zM748 816zM745 1260z" />
    <glyph glyph-name="uni0680" unicode="&#x680;" horiz-adv-x="1581" arabic-form="isolated" 
d="M643 0q-241 0 -370.5 87t-129.5 262q0 127 28 225h73q-2 -8 -4.5 -42t-2.5 -59q0 -119 45 -184t143.5 -99t260.5 -34q191 0 373 39t323 106q-22 85 -74 225q-39 104 -39 137q0 44 35 90t100 83q9 -60 22 -119l25 -116t20.5 -110t8.5 -100q0 -71 -71 -208
q-135 -87 -329.5 -135t-436.5 -48zM748 816zM774 -60zM774 -106zM777 -401q-40 -56 -87 -101q-66 50 -98 91l51 51l44 48q24 -26 90 -89zM757 -197q-31 -48 -88 -100q-64 51 -98 90q34 31 96 100q24 -27 90 -90zM983 -401q-30 -46 -87 -101q-61 47 -98 91l51 51l44 48z
M963 -197q-31 -48 -88 -100q-64 51 -98 90l51 52l45 48q24 -27 90 -90zM773 -303zM773 -107zM776 -522z" />
    <glyph glyph-name="uni0681.init" unicode="&#x681;" horiz-adv-x="1302" 
d="M0 0q-17 0 -17 17v122q0 17 17 17q301 0 473 52l114 39q116 44 206 60q-80 40 -158 102q-83 65 -134.5 90.5t-105.5 25.5q-98 0 -176 -50l-48 -30q-30 30 -30 80q0 77 68 124t179 47q65 0 131.5 -28t154.5 -92q107 -79 182 -118.5t152 -56.5t224 -17l-78 -151
q-64 8 -115 11l-7 1l-42 -1q-71 0 -135.5 -21t-200.5 -91q-153 -79 -276.5 -105.5t-377.5 -26.5zM660 796zM654 -60zM654 -106zM693 1062l2 10q0 9 -8 18.5t-22 9.5q-34 0 -63.5 -25.5t-41.5 -60.5q34 -44 104 -44q50 0 115 14l-5 -88q-82 -21 -138.5 -42.5t-141.5 -67.5
l-5 88l43 26l46 25q-83 16 -83 91q0 65 53.5 122t113.5 57q49 0 69.5 -24.5t20.5 -59.5q0 -26 -16 -61zM626 1245zM659 796z" />
    <glyph glyph-name="uni0681.medi" unicode="&#x681;" horiz-adv-x="1363" 
d="M0 0q-17 0 -17 17v122q0 17 17 17q192 0 333 21.5t254 72.5q132 58 205 73q-80 37 -157 94q-80 59 -133.5 83.5t-106.5 24.5q-98 0 -176 -50l-48 -30q-30 30 -30 80q0 77 68 124t179 47q66 0 131.5 -25.5t154.5 -86.5q106 -73 181 -110.5t151 -54.5t226 -17l-78 -152
q-98 5 -175 18l-13 -1l8 -13q36 -60 108 -79t298 -19q18 0 18 -17v-122q0 -17 -18 -17q-152 1 -245 23t-152 69.5t-108 151.5l-53 -24l-168 -88q-153 -79 -276.5 -105.5t-377.5 -26.5zM662 796zM652 -60zM652 -106zM695 1062l2 10q0 9 -8 18.5t-22 9.5q-34 0 -63.5 -25.5
t-41.5 -60.5q34 -44 104 -44q50 0 115 14l-5 -88q-82 -21 -138.5 -42.5t-141.5 -67.5l-5 88l43 26l46 25q-83 16 -83 91q0 65 53.5 122t113.5 57q49 0 69.5 -24.5t20.5 -59.5q0 -26 -16 -61zM628 1245zM661 796z" />
    <glyph glyph-name="uni0681.fina" unicode="&#x681;" horiz-adv-x="1363" 
d="M204 -146q0 191 140 352.5t378 244.5l-47 21q-116 52 -176.5 72.5t-104.5 20.5q-99 0 -177 -50l-48 -30q-30 30 -30 80q0 77 69 124t179 47q59 0 128.5 -21.5t190.5 -75.5q214 -98 382 -98h32l102 3l-58 -156q-61 -9 -121 -9h-33l-74 -8l26 -61q43 -94 123.5 -124
t296.5 -30q17 0 17 -17v-122q0 -17 -17 -17q-183 0 -277 33.5t-153.5 110t-97.5 212.5q-263 -60 -419.5 -189.5t-156.5 -289.5q0 -143 112.5 -220.5t318.5 -77.5q175 0 433 73l30 -68q-275 -169 -514 -169q-207 0 -330.5 121t-123.5 318zM700 836zM133 -537zM678 -35z
M658 -685zM733 1102l2 10q0 9 -8 18.5t-22 9.5q-34 0 -63.5 -25.5t-41.5 -60.5q34 -44 104 -44q50 0 115 14l-5 -88q-82 -21 -138.5 -42.5t-141.5 -67.5l-5 88l43 26l46 25q-83 16 -83 91q0 65 53.5 122t113.5 57q49 0 69.5 -24.5t20.5 -59.5q0 -26 -16 -61zM666 1285z
M699 836z" />
    <glyph glyph-name="uni0682.init" unicode="&#x682;" horiz-adv-x="1302" 
d="M0 0q-17 0 -17 17v122q0 17 17 17q301 0 473 52l114 39q116 44 206 60q-80 40 -158 102q-83 65 -134.5 90.5t-105.5 25.5q-98 0 -176 -50l-48 -30q-30 30 -30 80q0 77 68 124t179 47q65 0 131.5 -28t154.5 -92q107 -79 182 -118.5t152 -56.5t224 -17l-78 -151
q-64 8 -115 11l-7 1l-42 -1q-71 0 -135.5 -21t-200.5 -91q-153 -79 -276.5 -105.5t-377.5 -26.5zM660 796zM654 -60zM654 -106zM769 942q-36 -56 -109 -126q-77 60 -122 112q34 33 119 125q23 -25 112 -111zM744 1197q-37 -57 -110 -125q-84 68 -122 113q40 36 120 123
q23 -25 112 -111zM660 796zM632 1358z" />
    <glyph glyph-name="uni0682.medi" unicode="&#x682;" horiz-adv-x="1363" 
d="M0 0q-17 0 -17 17v122q0 17 17 17q192 0 333 21.5t254 72.5q132 58 205 73q-80 37 -157 94q-80 59 -133.5 83.5t-106.5 24.5q-98 0 -176 -50l-48 -30q-30 30 -30 80q0 77 68 124t179 47q66 0 131.5 -25.5t154.5 -86.5q106 -73 181 -110.5t151 -54.5t226 -17l-78 -152
q-98 5 -175 18l-13 -1l8 -13q36 -60 108 -79t298 -19q18 0 18 -17v-122q0 -17 -18 -17q-152 1 -245 23t-152 69.5t-108 151.5l-53 -24l-168 -88q-153 -79 -276.5 -105.5t-377.5 -26.5zM662 796zM652 -60zM652 -106zM772 941q-36 -56 -109 -126q-77 60 -122 112
q34 33 119 125q23 -25 112 -111zM747 1196q-37 -57 -110 -125q-84 68 -122 113q40 36 120 123q23 -25 112 -111zM663 795zM635 1357z" />
    <glyph glyph-name="uni0682.fina" unicode="&#x682;" horiz-adv-x="1359" 
d="M204 -146q0 191 140 352.5t378 244.5l-47 21q-116 52 -176.5 72.5t-104.5 20.5q-99 0 -177 -50l-48 -30q-30 30 -30 80q0 77 69 124t179 47q59 0 128.5 -21.5t190.5 -75.5q214 -98 382 -98h32l102 3l-58 -156q-61 -9 -121 -9h-33l-74 -8l26 -61q43 -94 123.5 -124
t296.5 -30q17 0 17 -17v-122q0 -17 -17 -17q-183 0 -277 33.5t-153.5 110t-97.5 212.5q-263 -60 -419.5 -189.5t-156.5 -289.5q0 -143 112.5 -220.5t318.5 -77.5q175 0 433 73l30 -68q-275 -169 -514 -169q-207 0 -330.5 121t-123.5 318zM700 836zM133 -537zM678 -35z
M658 -685zM809 982q-36 -56 -109 -126q-77 60 -122 112q34 33 119 125q23 -25 112 -111zM784 1237q-37 -57 -110 -125q-84 68 -122 113q40 36 120 123q23 -25 112 -111zM700 836zM672 1398z" />
    <glyph glyph-name="uni0683" unicode="&#x683;" horiz-adv-x="1302" arabic-form="isolated" 
d="M394 609q-97 0 -177 -50l-48 -29q-12 11 -21 32.5t-9 46.5q0 77 69 124t179 47q88 0 173 -22.5t171 -49t174 -49t183 -22.5h32l102 4l-58 -157q-61 -9 -115 -9q-128 -9 -275.5 -61.5t-259.5 -130.5t-173.5 -173t-61.5 -196q0 -162 115 -247.5t349 -85.5q253 0 501 57
l23 -69q-150 -83 -279.5 -120t-249.5 -37q-254 0 -393 129t-139 373q0 128 63 253.5t174 221.5t238 145q-13 5 -107 35t-126 35t-54 5zM700 880zM128 -537zM761 -6zM708 -688zM734 0q-37 -59 -121 -140q-92 74 -136 125q54 50 132 138q18 -19 125 -123zM1043 29
q-37 -58 -123 -139q-89 71 -135 125q46 42 132 138q18 -20 126 -124zM761 -6zM757 153zM763 -160z" />
    <glyph glyph-name="uni0684" unicode="&#x684;" horiz-adv-x="1302" arabic-form="isolated" 
d="M394 609q-97 0 -177 -50l-48 -29q-12 11 -21 32.5t-9 46.5q0 77 69 124t179 47q88 0 173 -22.5t171 -49t174 -49t183 -22.5h32l102 4l-58 -157q-61 -9 -115 -9q-128 -9 -275.5 -61.5t-259.5 -130.5t-173.5 -173t-61.5 -196q0 -162 115 -247.5t349 -85.5q253 0 501 57
l23 -69q-150 -83 -279.5 -120t-249.5 -37q-254 0 -393 129t-139 373q0 128 63 253.5t174 221.5t238 145q-13 5 -107 35t-126 35t-54 5zM700 880zM128 -537zM761 -6zM708 -688zM888 -127q-36 -56 -109 -126q-85 69 -122 113q33 31 119 124q30 -32 112 -111zM863 128
q-37 -57 -110 -125q-84 68 -122 113q50 46 120 124q24 -28 112 -112zM761 -6zM751 260zM779 -273z" />
    <glyph glyph-name="uni0685.init" unicode="&#x685;" horiz-adv-x="1302" 
d="M0 0q-17 0 -17 17v122q0 17 17 17q301 0 473 52l114 39q116 44 206 60q-80 40 -158 102q-83 65 -134.5 90.5t-105.5 25.5q-98 0 -176 -50l-48 -30q-30 30 -30 80q0 77 68 124t179 47q65 0 131.5 -28t154.5 -92q107 -79 182 -118.5t152 -56.5t224 -17l-78 -151
q-64 8 -115 11l-7 1l-42 -1q-71 0 -135.5 -21t-200.5 -91q-153 -79 -276.5 -105.5t-377.5 -26.5zM660 796zM654 -60zM654 -106zM771 1066q-59 -69 -106 -102q-57 35 -116 102q62 59 110 113q38 -51 112 -113zM628 896q-36 -56 -109 -126q-80 63 -123 112q49 46 119 125
q22 -23 113 -111zM921 922q-39 -60 -110 -126q-71 56 -121 113q37 34 118 125zM660 796zM659 1229z" />
    <glyph glyph-name="uni0685.medi" unicode="&#x685;" horiz-adv-x="1363" 
d="M0 0q-17 0 -17 17v122q0 17 17 17q192 0 333 21.5t254 72.5q132 58 205 73q-80 37 -157 94q-80 59 -133.5 83.5t-106.5 24.5q-98 0 -176 -50l-48 -30q-30 30 -30 80q0 77 68 124t179 47q66 0 131.5 -25.5t154.5 -86.5q106 -73 181 -110.5t151 -54.5t226 -17l-78 -152
q-98 5 -175 18l-13 -1l8 -13q36 -60 108 -79t298 -19q18 0 18 -17v-122q0 -17 -18 -17q-152 1 -245 23t-152 69.5t-108 151.5l-53 -24l-168 -88q-153 -79 -276.5 -105.5t-377.5 -26.5zM662 796zM652 -60zM652 -106zM773 1066q-59 -69 -106 -102q-57 35 -116 102
q62 59 110 113q38 -51 112 -113zM630 896q-36 -56 -109 -126q-80 63 -123 112q49 46 119 125q22 -23 113 -111zM923 922q-39 -60 -110 -126q-71 56 -121 113q37 34 118 125zM662 796zM661 1229z" />
    <glyph glyph-name="uni0685.fina" unicode="&#x685;" horiz-adv-x="1363" 
d="M204 -146q0 191 140 352.5t378 244.5l-47 21q-116 52 -176.5 72.5t-104.5 20.5q-99 0 -177 -50l-48 -30q-30 30 -30 80q0 77 69 124t179 47q59 0 128.5 -21.5t190.5 -75.5q214 -98 382 -98h32l102 3l-58 -156q-61 -9 -121 -9h-33l-74 -8l26 -61q43 -94 123.5 -124
t296.5 -30q17 0 17 -17v-122q0 -17 -17 -17q-183 0 -277 33.5t-153.5 110t-97.5 212.5q-263 -60 -419.5 -189.5t-156.5 -289.5q0 -143 112.5 -220.5t318.5 -77.5q175 0 433 73l30 -68q-275 -169 -514 -169q-207 0 -330.5 121t-123.5 318zM700 836zM133 -537zM678 -35z
M658 -685zM811 1106q-59 -69 -106 -102q-57 35 -116 102q62 59 110 113q38 -51 112 -113zM668 936q-36 -56 -109 -126q-80 63 -123 112q49 46 119 125q22 -23 113 -111zM961 962q-39 -60 -110 -126q-71 56 -121 113q37 34 118 125zM700 836zM699 1269z" />
    <glyph glyph-name="uni0686" unicode="&#x686;" horiz-adv-x="1302" arabic-form="isolated" 
d="M394 609q-97 0 -177 -50l-48 -29q-12 11 -21 32.5t-9 46.5q0 77 69 124t179 47q88 0 173 -22.5t171 -49t174 -49t183 -22.5h32l102 4l-58 -157q-61 -9 -115 -9q-128 -9 -275.5 -61.5t-259.5 -130.5t-173.5 -173t-61.5 -196q0 -162 115 -247.5t349 -85.5q253 0 501 57
l23 -69q-150 -83 -279.5 -120t-249.5 -37q-254 0 -393 129t-139 373q0 128 63 253.5t174 221.5t238 145q-13 5 -107 35t-126 35t-54 5zM700 880zM128 -537zM761 -6zM708 -688zM726 8q-34 -53 -109 -125q-75 58 -122 113q28 25 119 124q24 -28 112 -112zM1020 35
q-37 -57 -110 -125q-76 57 -123 113q54 48 120 122zM880 -156q-66 -73 -107 -102q-57 35 -116 102q62 56 110 114q31 -40 113 -114zM761 14zM757 145zM773 -278z" />
    <glyph glyph-name="uni0687" unicode="&#x687;" horiz-adv-x="1302" arabic-form="isolated" 
d="M394 609q-97 0 -177 -50l-48 -29q-12 11 -21 32.5t-9 46.5q0 77 69 124t179 47q88 0 173 -22.5t171 -49t174 -49t183 -22.5h32l102 4l-58 -157q-61 -9 -115 -9q-128 -9 -275.5 -61.5t-259.5 -130.5t-173.5 -173t-61.5 -196q0 -162 115 -247.5t349 -85.5q253 0 501 57
l23 -69q-150 -83 -279.5 -120t-249.5 -37q-254 0 -393 129t-139 373q0 128 63 253.5t174 221.5t238 145q-13 5 -107 35t-126 35t-54 5zM700 880zM128 -537zM761 -6zM708 -688zM765 -104q-40 -56 -87 -101q-66 50 -98 91l51 51l44 48q24 -26 90 -89zM745 100
q-31 -48 -88 -100q-64 51 -98 90q34 31 96 100q24 -27 90 -90zM971 -104q-30 -46 -87 -101q-61 47 -98 91l51 51l44 48zM951 100q-31 -48 -88 -100q-64 51 -98 90l51 52l45 48q24 -27 90 -90zM761 -6zM761 190zM764 -225z" />
    <glyph glyph-name="uni0688" unicode="&#x688;" horiz-adv-x="855" arabic-form="isolated" 
d="M327 0q-125 0 -187.5 34t-62.5 96q0 66 36 108q51 -42 116.5 -62t162.5 -20q136 0 278 42q-32 91 -85 188l-70 128q-31 54 -43.5 91t-12.5 75q0 100 108 136q31 -84 66 -159.5l65 -141.5t50 -123t20 -104q0 -30 -19 -86.5t-53 -121.5q-149 -80 -369 -80zM455 916z
M446 -60zM446 -106zM349 1078q-49 176 -49 195q0 17 24.5 36.5t59.5 29.5q12 -44 23 -68l-17 -13v-28l5 -105q56 48 81.5 62t45.5 14q42 0 90.5 -41.5t48.5 -72.5q0 -66 -60 -108.5t-146 -42.5q-138 0 -250 66l13 50q35 -7 95 -15zM459 1026q48 0 82.5 9t74.5 25
q-35 28 -58.5 36t-46.5 8q-59 0 -146 -73zM453 1118zM514 1389zM455 916zM455 886z" />
    <glyph glyph-name="uni0689.fina" unicode="&#x689;" horiz-adv-x="970" 
d="M987 0q-83 0 -144.5 28t-108.5 78q-189 -106 -414 -106q-125 0 -187.5 34t-62.5 96q0 66 36 108q51 -42 116.5 -62t162.5 -20q128 0 283 43q-78 136 -131.5 280t-53.5 201q0 100 108 136q42 -154 76 -259t63.5 -170.5t71.5 -125t85 -82.5t100 -23q18 0 18 -17v-122
q0 -17 -18 -17zM462 916zM489 -60zM489 -106zM624 -262q0 -31 -10.5 -55.5t-28.5 -40.5t-42.5 -25t-54.5 -9q-29 0 -54 9t-42.5 25t-27.5 40t-10 54q0 31 10 54.5t27.5 39.5t42.5 25t55 9q29 0 53.5 -9t42.5 -25t28.5 -39t10.5 -53zM546 -264q0 29 -16 44t-41 15
q-26 0 -42.5 -15t-16.5 -44q0 -26 15 -42t43 -16q27 0 42.5 16t15.5 42zM498 -412zM489 -106z" />
    <glyph glyph-name="uni068A.fina" unicode="&#x68a;" horiz-adv-x="970" 
d="M987 0q-83 0 -144.5 28t-108.5 78q-189 -106 -414 -106q-125 0 -187.5 34t-62.5 96q0 66 36 108q51 -42 116.5 -62t162.5 -20q128 0 283 43q-78 136 -131.5 280t-53.5 201q0 100 108 136q42 -154 76 -259t63.5 -170.5t71.5 -125t85 -82.5t100 -23q18 0 18 -17v-122
q0 -17 -18 -17zM462 916zM489 -60zM489 -106zM626 -260q-48 -69 -132 -150q-88 69 -147 134q92 90 143 150q71 -77 136 -134zM489 -276zM490 -106zM494 -430zM490 -76z" />
    <glyph glyph-name="uni068B.fina" unicode="&#x68b;" horiz-adv-x="970" 
d="M987 0q-83 0 -144.5 28t-108.5 78q-189 -106 -414 -106q-125 0 -187.5 34t-62.5 96q0 66 36 108q51 -42 116.5 -62t162.5 -20q128 0 283 43q-78 136 -131.5 280t-53.5 201q0 100 108 136q42 -154 76 -259t63.5 -170.5t71.5 -125t85 -82.5t100 -23q18 0 18 -17v-122
q0 -17 -18 -17zM462 916zM489 -60zM489 -106zM626 -260q-48 -69 -132 -150q-88 69 -147 134q92 90 143 150q71 -77 136 -134zM489 -276zM490 -106zM494 -430zM490 -76zM356 1078q-49 176 -49 195q0 17 24.5 36.5t59.5 29.5q12 -44 23 -68l-17 -13v-28l5 -105q56 48 81.5 62
t45.5 14q42 0 90.5 -41.5t48.5 -72.5q0 -66 -60 -108.5t-146 -42.5q-138 0 -250 66l13 50q35 -7 95 -15zM466 1026q48 0 82.5 9t74.5 25q-35 28 -58.5 36t-46.5 8q-59 0 -146 -73zM460 1118zM521 1389zM462 916zM462 886z" />
    <glyph glyph-name="uni068C" unicode="&#x68c;" horiz-adv-x="847" arabic-form="isolated" 
d="M320 0q-125 0 -187.5 34t-62.5 96q0 66 36 108q51 -42 116.5 -62t162.5 -20q136 0 278 42q-32 91 -85 188l-70 128q-31 54 -43.5 91t-12.5 75q0 100 108 136q31 -84 66 -159.5l65 -141.5t50 -123t20 -104q0 -30 -19 -86.5t-53 -121.5q-149 -80 -369 -80zM448 916z
M439 -60zM439 -106zM415 1056q-37 -59 -121 -140q-92 74 -136 125q54 50 132 138q24 -25 125 -123zM724 1085q-38 -61 -123 -140q-87 69 -135 126q22 20 132 138q24 -26 126 -124zM448 896zM438 1259zM448 916z" />
    <glyph glyph-name="uni068D" unicode="&#x68d;" horiz-adv-x="847" arabic-form="isolated" 
d="M320 0q-125 0 -187.5 34t-62.5 96q0 66 36 108q51 -42 116.5 -62t162.5 -20q136 0 278 42q-32 91 -85 188l-70 128q-31 54 -43.5 91t-12.5 75q0 100 108 136q31 -84 66 -159.5l65 -141.5t50 -123t20 -104q0 -30 -19 -86.5t-53 -121.5q-149 -80 -369 -80zM448 916z
M439 -60zM439 -106zM416 -258q-37 -59 -121 -140q-92 74 -136 125q54 50 132 138q18 -19 125 -123zM725 -229q-37 -58 -123 -139q-89 71 -135 125q46 42 132 138q18 -20 126 -124zM443 -264zM439 -105zM445 -418z" />
    <glyph glyph-name="uni068E" unicode="&#x68e;" horiz-adv-x="847" arabic-form="isolated" 
d="M320 0q-125 0 -187.5 34t-62.5 96q0 66 36 108q51 -42 116.5 -62t162.5 -20q136 0 278 42q-32 91 -85 188l-70 128q-31 54 -43.5 91t-12.5 75q0 100 108 136q31 -84 66 -159.5l65 -141.5t50 -123t20 -104q0 -30 -19 -86.5t-53 -121.5q-149 -80 -369 -80zM448 916z
M439 -60zM439 -106zM559 1186q-59 -69 -106 -102q-57 35 -116 102q62 59 110 113q38 -51 112 -113zM416 1016q-36 -56 -109 -126q-80 63 -123 112q49 46 119 125q22 -23 113 -111zM709 1042q-39 -60 -110 -126q-71 56 -121 113q37 34 118 125zM448 916zM447 1349z" />
    <glyph glyph-name="uni068F.fina" unicode="&#x68f;" horiz-adv-x="970" 
d="M987 0q-83 0 -144.5 28t-108.5 78q-189 -106 -414 -106q-125 0 -187.5 34t-62.5 96q0 66 36 108q51 -42 116.5 -62t162.5 -20q128 0 283 43q-78 136 -131.5 280t-53.5 201q0 100 108 136q42 -154 76 -259t63.5 -170.5t71.5 -125t85 -82.5t100 -23q18 0 18 -17v-122
q0 -17 -18 -17zM462 916zM489 -60zM489 -106zM421 1202q-36 -56 -109 -126q-82 64 -123 113q47 43 119 124q22 -23 113 -111zM714 1228q-37 -57 -110 -125q-71 53 -122 112q34 32 120 125q30 -33 112 -112zM568 1037q-65 -71 -106 -101q-64 43 -115 101q56 53 109 113
q52 -65 112 -113zM462 916zM452 1370z" />
    <glyph glyph-name="uni0690.fina" unicode="&#x690;" horiz-adv-x="970" 
d="M987 0q-83 0 -144.5 28t-108.5 78q-189 -106 -414 -106q-125 0 -187.5 34t-62.5 96q0 66 36 108q51 -42 116.5 -62t162.5 -20q128 0 283 43q-78 136 -131.5 280t-53.5 201q0 100 108 136q42 -154 76 -259t63.5 -170.5t71.5 -125t85 -82.5t100 -23q18 0 18 -17v-122
q0 -17 -18 -17zM462 916zM489 -60zM489 -106zM463 1037q-45 -62 -87 -101q-64 49 -98 90q34 33 95 100q41 -45 90 -89zM443 1241q-31 -48 -88 -100q-64 51 -98 90q39 36 96 99q24 -26 90 -89zM669 1037q-34 -53 -87 -101q-59 45 -98 90q34 33 95 100zM649 1241
q-31 -48 -88 -100q-64 51 -98 90q14 13 96 99q24 -26 90 -89zM462 916zM459 1360z" />
    <glyph glyph-name="uni0691" unicode="&#x691;" horiz-adv-x="762" arabic-form="isolated" 
d="M198 -418q-49 0 -134 38.5t-134 76.5l28 68q112 -23 193 -23q154 0 263 91.5t167 266.5q-27 66 -62 129q-72 124 -104.5 199.5t-32.5 126.5q0 52 31.5 83.5t87.5 59.5q15 -56 41 -124.5l52 -140t45 -141t19 -127.5q0 -159 -60.5 -295.5t-166 -212t-233.5 -75.5zM372 798z
M204 -518zM267 960q-49 176 -49 195q0 17 24.5 36.5t59.5 29.5q12 -44 23 -68l-17 -13v-28l5 -105q56 48 81.5 62t45.5 14q42 0 90.5 -41.5t48.5 -72.5q0 -66 -60 -108.5t-146 -42.5q-138 0 -250 66l13 50q35 -7 95 -15zM377 908q48 0 82.5 9t74.5 25q-35 28 -58.5 36
t-46.5 8q-59 0 -146 -73zM371 1000zM432 1271zM373 798zM373 768z" />
    <glyph glyph-name="uni0692.fina" unicode="&#x692;" horiz-adv-x="799" 
d="M817 0q-96 0 -167 50q-35 -214 -158.5 -341t-293.5 -127q-49 0 -134 38.5t-134 76.5l28 68q112 -23 193 -23q154 0 263 91.5t167 266.5q-27 66 -62 129q-72 124 -104.5 199.5t-32.5 126.5q0 52 31.5 83.5t87.5 59.5q15 -56 41 -124q65 -171 87.5 -248t27.5 -129
q69 -41 160 -41q17 0 17 -17v-122q0 -17 -17 -17zM402 798zM207 -518zM510 1187q18 -1 32 -17t14 -47q0 -14 -30 -73q-47 -93 -81 -196q-40 -26 -111 -36l-81 167t-96 158l33 9q22 6 41 6q36 0 65.5 -34.5t58 -89.5t49.5 -107q12 64 48 148.5t58 111.5zM402 798zM379 1237z
" />
    <glyph glyph-name="uni0693.fina" unicode="&#x693;" horiz-adv-x="799" 
d="M817 0q-96 0 -167 50q-35 -214 -158.5 -341t-293.5 -127q-49 0 -134 38.5t-134 76.5l28 68q112 -23 193 -23q154 0 263 91.5t167 266.5q-27 66 -62 129q-72 124 -104.5 199.5t-32.5 126.5q0 52 31.5 83.5t87.5 59.5q15 -56 41 -124q65 -171 87.5 -248t27.5 -129
q69 -41 160 -41q17 0 17 -17v-122q0 -17 -17 -17zM402 798zM207 -518zM342 -674q0 -31 -10.5 -55.5t-28.5 -40.5t-42.5 -25t-54.5 -9q-29 0 -54 9t-42.5 25t-27.5 40t-10 54q0 31 10 54.5t27.5 39.5t42.5 25t55 9q29 0 53.5 -9t42.5 -25t28.5 -39t10.5 -53zM264 -676
q0 29 -16 44t-41 15q-26 0 -42.5 -15t-16.5 -44q0 -26 15 -42t43 -16q27 0 42.5 16t15.5 42zM216 -824zM207 -518z" />
    <glyph glyph-name="uni0694.fina" unicode="&#x694;" horiz-adv-x="799" 
d="M817 0q-96 0 -167 50q-35 -214 -158.5 -341t-293.5 -127q-49 0 -134 38.5t-134 76.5l28 68q112 -23 193 -23q154 0 263 91.5t167 266.5q-27 66 -62 129q-72 124 -104.5 199.5t-32.5 126.5q0 52 31.5 83.5t87.5 59.5q15 -56 41 -124q65 -171 87.5 -248t27.5 -129
q69 -41 160 -41q17 0 17 -17v-122q0 -17 -17 -17zM402 798zM207 -518zM343 -672q-48 -69 -132 -150q-88 69 -147 134q92 90 143 150q71 -77 136 -134zM206 -688zM207 -518zM211 -842zM207 -488z" />
    <glyph glyph-name="uni0695.fina" unicode="&#x695;" horiz-adv-x="799" 
d="M817 0q-96 0 -167 50q-35 -214 -158.5 -341t-293.5 -127q-49 0 -134 38.5t-134 76.5l28 68q112 -23 193 -23q154 0 263 91.5t167 266.5q-27 66 -62 129q-72 124 -104.5 199.5t-32.5 126.5q0 52 31.5 83.5t87.5 59.5q15 -56 41 -124q65 -171 87.5 -248t27.5 -129
q69 -41 160 -41q17 0 17 -17v-122q0 -17 -17 -17zM402 798zM207 -518zM331 -548q17 -2 30.5 -16.5t13.5 -41.5q0 -13 -7.5 -27.5l-21 -40.5t-32.5 -67.5t-41 -108.5q-38 -23 -100 -33l-73 152t-88 143l32 8l31 5q31 0 53.5 -20t52 -71.5t56.5 -116.5q11 58 42 133.5
t52 101.5zM234 -903zM207 -518z" />
    <glyph glyph-name="uni0696.fina" unicode="&#x696;" horiz-adv-x="799" 
d="M817 0q-96 0 -167 50q-35 -214 -158.5 -341t-293.5 -127q-49 0 -134 38.5t-134 76.5l28 68q112 -23 193 -23q154 0 263 91.5t167 266.5q-27 66 -62 129q-72 124 -104.5 199.5t-32.5 126.5q0 52 31.5 83.5t87.5 59.5q15 -56 41 -124q65 -171 87.5 -248t27.5 -129
q69 -41 160 -41q17 0 17 -17v-122q0 -17 -17 -17zM402 798zM207 -518zM396 149q-48 -69 -132 -150q-88 69 -147 134q92 90 143 150q71 -77 136 -134zM259 133zM260 303zM264 -21zM260 333zM343 -672q-48 -69 -132 -150q-88 69 -147 134q92 90 143 150q71 -77 136 -134z
M206 -688zM207 -518zM211 -842zM207 -488z" />
    <glyph glyph-name="uni0697.fina" unicode="&#x697;" horiz-adv-x="799" 
d="M817 0q-96 0 -167 50q-35 -214 -158.5 -341t-293.5 -127q-49 0 -134 38.5t-134 76.5l28 68q112 -23 193 -23q154 0 263 91.5t167 266.5q-27 66 -62 129q-72 124 -104.5 199.5t-32.5 126.5q0 52 31.5 83.5t87.5 59.5q15 -56 41 -124q65 -171 87.5 -248t27.5 -129
q69 -41 160 -41q17 0 17 -17v-122q0 -17 -17 -17zM402 798zM207 -518zM369 938q-37 -59 -121 -140q-92 74 -136 125q54 50 132 138q24 -25 125 -123zM678 967q-38 -61 -123 -140q-87 69 -135 126q22 20 132 138q24 -26 126 -124zM402 778zM392 1141zM402 798z" />
    <glyph glyph-name="uni0698" unicode="&#x698;" horiz-adv-x="790" arabic-form="isolated" 
d="M198 -418q-49 0 -134 38.5t-134 76.5l28 68q112 -23 193 -23q154 0 263 91.5t167 266.5q-27 66 -62 129q-72 124 -104.5 199.5t-32.5 126.5q0 52 31.5 83.5t87.5 59.5q15 -56 41 -124.5l52 -140t45 -141t19 -127.5q0 -159 -60.5 -295.5t-166 -212t-233.5 -75.5zM372 798z
M204 -518zM483 1068q-59 -69 -106 -102q-57 35 -116 102q62 59 110 113q38 -51 112 -113zM340 898q-36 -56 -109 -126q-80 63 -123 112q49 46 119 125q22 -23 113 -111zM633 924q-39 -60 -110 -126q-71 56 -121 113q37 34 118 125zM372 798zM371 1231z" />
    <glyph glyph-name="uni0699.fina" unicode="&#x699;" horiz-adv-x="799" 
d="M817 0q-96 0 -167 50q-35 -214 -158.5 -341t-293.5 -127q-49 0 -134 38.5t-134 76.5l28 68q112 -23 193 -23q154 0 263 91.5t167 266.5q-27 66 -62 129q-72 124 -104.5 199.5t-32.5 126.5q0 52 31.5 83.5t87.5 59.5q15 -56 41 -124q65 -171 87.5 -248t27.5 -129
q69 -41 160 -41q17 0 17 -17v-122q0 -17 -17 -17zM402 798zM207 -518zM403 919q-45 -62 -87 -101q-64 49 -98 90q34 33 95 100q41 -45 90 -89zM383 1123q-31 -48 -88 -100q-64 51 -98 90q39 36 96 99q24 -26 90 -89zM609 919q-34 -53 -87 -101q-59 45 -98 90q34 33 95 100z
M589 1123q-31 -48 -88 -100q-64 51 -98 90q14 13 96 99q24 -26 90 -89zM402 798zM399 1242z" />
    <glyph glyph-name="uni069A.init" unicode="&#x69a;" horiz-adv-x="1347" 
d="M463 0q-59 0 -134.5 19t-116.5 44q-29 -29 -86 -46t-126 -17q-17 0 -17 17v122q0 17 17 17q57 0 94.5 10.5t71.5 36.5q26 21 38.5 36.5t70.5 111.5q18 33 63 33q27 0 50 -15q-64 -156 -85 -187q15 -7 66 -16.5t116 -9.5q96 0 161 21q12 19 24 58q52 174 72.5 216t40 53.5
t43.5 11.5q27 0 48 -15q-30 -64 -89 -260l52 -22q139 -58 309 -58q-25 93 -77 225q-41 105 -41 138q0 45 36 90.5t99 81.5q9 -62 49 -234q31 -135 31 -210q0 -36 -25 -116t-54 -136q-132 0 -228 18.5t-206 69.5l-18 -33q-13 -22 -77.5 -37.5t-171.5 -17.5zM695 676zM689 -60
zM689 -106zM827 846q-48 -69 -132 -150q-91 72 -147 133q105 105 143 150q65 -71 136 -133zM695 676zM691 1029zM825 -260q-48 -69 -132 -150q-88 69 -147 134q92 90 143 150q71 -77 136 -134zM688 -276zM689 -106zM693 -430zM689 -76z" />
    <glyph glyph-name="uni069A.medi" unicode="&#x69a;" horiz-adv-x="1357" 
d="M1375 0q-80 0 -158.5 30.5t-132.5 80.5l-29 -56q-16 -24 -70.5 -39.5t-110.5 -15.5q-91 0 -164 52q-17 -21 -81 -35.5t-166 -16.5q-59 0 -134.5 19t-116.5 44q-29 -29 -86 -46t-126 -17q-17 0 -17 17v122q0 17 17 17q57 0 94.5 10.5t71.5 36.5q26 21 38.5 36.5
t70.5 111.5q18 33 63 33q27 0 50 -15q-64 -156 -85 -187q15 -7 66 -16.5t116 -9.5q96 0 161 21q12 19 24 58q52 174 72.5 216t40 53.5t43.5 11.5q27 0 48 -15q-28 -59 -83 -239l-23 -75q31 -15 54 -20.5t55 -5.5q50 0 113 22q16 25 59 147q17 51 35 96t35.5 76t63.5 31
q29 0 49 -15q-28 -68 -102 -290l32 -19q93 -53 213 -53q17 0 17 -17v-122q0 -17 -17 -17zM717 676zM681 -60zM681 -106zM849 846q-48 -69 -132 -150q-91 72 -147 133q105 105 143 150q65 -71 136 -133zM717 676zM713 1029zM817 -260q-48 -69 -132 -150q-88 69 -147 134
q92 90 143 150q71 -77 136 -134zM680 -276zM681 -106zM685 -430zM681 -76z" />
    <glyph glyph-name="uni069A.fina" unicode="&#x69a;" horiz-adv-x="2082" 
d="M2099 0q-79 0 -158.5 30.5t-132.5 80.5l-29 -56q-16 -24 -70.5 -39.5t-110.5 -15.5q-91 0 -164 52q-17 -21 -81 -35.5t-166 -16.5q-19 0 -92 8l1 -42q0 -126 -80 -241t-219 -188t-287 -73q-175 0 -273 100.5t-98 284.5q0 59 7.5 111.5t32.5 153.5l75 -18
q-23 -90 -23 -146q0 -150 75 -233.5t209 -83.5q152 0 303 74t202 182q-134 293 -134 391q0 53 30 96t104 87q10 -80 53 -295q55 -12 137 -12q95 0 160 21q14 22 50 141q14 49 30 92t35.5 74.5t64.5 31.5q28 0 48 -15q-28 -59 -83 -239l-23 -75q52 -26 109 -26q50 0 113 22
q16 25 59 147q34 98 55 141t40 52.5t40 9.5q28 0 49 -15q-21 -51 -43 -116l-60 -174l32 -19q93 -53 213 -53q17 0 17 -17v-122q0 -17 -17 -17zM1485 676zM1501 -60zM1501 -156zM1617 846q-48 -69 -132 -150q-91 72 -147 133q105 105 143 150q65 -71 136 -133zM1485 676z
M1481 1029zM1637 -310q-48 -69 -132 -150q-88 69 -147 134q92 90 143 150q71 -77 136 -134zM1500 -326zM1501 -156zM1505 -480zM1501 -126z" />
    <glyph glyph-name="uni069B.init" unicode="&#x69b;" horiz-adv-x="1347" 
d="M463 0q-59 0 -134.5 19t-116.5 44q-29 -29 -86 -46t-126 -17q-17 0 -17 17v122q0 17 17 17q57 0 94.5 10.5t71.5 36.5q26 21 38.5 36.5t70.5 111.5q18 33 63 33q27 0 50 -15q-64 -156 -85 -187q15 -7 66 -16.5t116 -9.5q96 0 161 21q12 19 24 58q52 174 72.5 216t40 53.5
t43.5 11.5q27 0 48 -15q-30 -64 -89 -260l52 -22q139 -58 309 -58q-25 93 -77 225q-41 105 -41 138q0 45 36 90.5t99 81.5q9 -62 49 -234q31 -135 31 -210q0 -36 -25 -116t-54 -136q-132 0 -228 18.5t-206 69.5l-18 -33q-13 -22 -77.5 -37.5t-171.5 -17.5zM695 676zM689 -60
zM689 -106zM658 -243q-34 -53 -109 -125q-75 58 -122 113q28 25 119 124q24 -28 112 -112zM952 -216q-37 -57 -110 -125q-76 57 -123 113q54 48 120 122zM812 -407q-66 -73 -107 -102q-57 35 -116 102q62 56 110 114q31 -40 113 -114zM693 -237zM689 -106zM705 -529z" />
    <glyph glyph-name="uni069B.medi" unicode="&#x69b;" horiz-adv-x="1357" 
d="M1375 0q-80 0 -158.5 30.5t-132.5 80.5l-29 -56q-16 -24 -70.5 -39.5t-110.5 -15.5q-91 0 -164 52q-17 -21 -81 -35.5t-166 -16.5q-59 0 -134.5 19t-116.5 44q-29 -29 -86 -46t-126 -17q-17 0 -17 17v122q0 17 17 17q57 0 94.5 10.5t71.5 36.5q26 21 38.5 36.5
t70.5 111.5q18 33 63 33q27 0 50 -15q-64 -156 -85 -187q15 -7 66 -16.5t116 -9.5q96 0 161 21q12 19 24 58q52 174 72.5 216t40 53.5t43.5 11.5q27 0 48 -15q-28 -59 -83 -239l-23 -75q31 -15 54 -20.5t55 -5.5q50 0 113 22q16 25 59 147q17 51 35 96t35.5 76t63.5 31
q29 0 49 -15q-28 -68 -102 -290l32 -19q93 -53 213 -53q17 0 17 -17v-122q0 -17 -17 -17zM717 676zM681 -60zM681 -106zM650 -243q-34 -53 -109 -125q-75 58 -122 113q28 25 119 124q24 -28 112 -112zM944 -216q-37 -57 -110 -125q-76 57 -123 113q54 48 120 122zM804 -407
q-66 -73 -107 -102q-57 35 -116 102q62 56 110 114q31 -40 113 -114zM685 -237zM681 -106zM697 -529z" />
    <glyph glyph-name="uni069B.fina" unicode="&#x69b;" horiz-adv-x="2082" 
d="M2099 0q-79 0 -158.5 30.5t-132.5 80.5l-29 -56q-16 -24 -70.5 -39.5t-110.5 -15.5q-91 0 -164 52q-17 -21 -81 -35.5t-166 -16.5q-19 0 -92 8l1 -42q0 -126 -80 -241t-219 -188t-287 -73q-175 0 -273 100.5t-98 284.5q0 59 7.5 111.5t32.5 153.5l75 -18
q-23 -90 -23 -146q0 -150 75 -233.5t209 -83.5q152 0 303 74t202 182q-134 293 -134 391q0 53 30 96t104 87q10 -80 53 -295q55 -12 137 -12q95 0 160 21q14 22 50 141q14 49 30 92t35.5 74.5t64.5 31.5q28 0 48 -15q-28 -59 -83 -239l-23 -75q52 -26 109 -26q50 0 113 22
q16 25 59 147q34 98 55 141t40 52.5t40 9.5q28 0 49 -15q-21 -51 -43 -116l-60 -174l32 -19q93 -53 213 -53q17 0 17 -17v-122q0 -17 -17 -17zM1485 676zM1501 -60zM1501 -156zM1470 -293q-34 -53 -109 -125q-75 58 -122 113q28 25 119 124q24 -28 112 -112zM1764 -266
q-37 -57 -110 -125q-76 57 -123 113q54 48 120 122zM1624 -457q-66 -73 -107 -102q-57 35 -116 102q62 56 110 114q31 -40 113 -114zM1505 -287zM1501 -156zM1517 -579z" />
    <glyph glyph-name="uni069C.init" unicode="&#x69c;" horiz-adv-x="1347" 
d="M463 0q-59 0 -134.5 19t-116.5 44q-29 -29 -86 -46t-126 -17q-17 0 -17 17v122q0 17 17 17q57 0 94.5 10.5t71.5 36.5q26 21 38.5 36.5t70.5 111.5q18 33 63 33q27 0 50 -15q-64 -156 -85 -187q15 -7 66 -16.5t116 -9.5q96 0 161 21q12 19 24 58q52 174 72.5 216t40 53.5
t43.5 11.5q27 0 48 -15q-30 -64 -89 -260l52 -22q139 -58 309 -58q-25 93 -77 225q-41 105 -41 138q0 45 36 90.5t99 81.5q9 -62 49 -234q31 -135 31 -210q0 -36 -25 -116t-54 -136q-132 0 -228 18.5t-206 69.5l-18 -33q-13 -22 -77.5 -37.5t-171.5 -17.5zM695 676zM689 -60
zM689 -106zM806 946q-59 -69 -106 -102q-57 35 -116 102q62 59 110 113q38 -51 112 -113zM663 776q-36 -56 -109 -126q-80 63 -123 112q49 46 119 125q22 -23 113 -111zM956 802q-39 -60 -110 -126q-71 56 -121 113q37 34 118 125zM695 676zM694 1109zM658 -243
q-34 -53 -109 -125q-75 58 -122 113q28 25 119 124q24 -28 112 -112zM952 -216q-37 -57 -110 -125q-76 57 -123 113q54 48 120 122zM812 -407q-66 -73 -107 -102q-57 35 -116 102q62 56 110 114q31 -40 113 -114zM693 -237zM689 -106zM705 -529z" />
    <glyph glyph-name="uni069C.medi" unicode="&#x69c;" horiz-adv-x="1357" 
d="M1375 0q-80 0 -158.5 30.5t-132.5 80.5l-29 -56q-16 -24 -70.5 -39.5t-110.5 -15.5q-91 0 -164 52q-17 -21 -81 -35.5t-166 -16.5q-59 0 -134.5 19t-116.5 44q-29 -29 -86 -46t-126 -17q-17 0 -17 17v122q0 17 17 17q57 0 94.5 10.5t71.5 36.5q26 21 38.5 36.5
t70.5 111.5q18 33 63 33q27 0 50 -15q-64 -156 -85 -187q15 -7 66 -16.5t116 -9.5q96 0 161 21q12 19 24 58q52 174 72.5 216t40 53.5t43.5 11.5q27 0 48 -15q-28 -59 -83 -239l-23 -75q31 -15 54 -20.5t55 -5.5q50 0 113 22q16 25 59 147q17 51 35 96t35.5 76t63.5 31
q29 0 49 -15q-28 -68 -102 -290l32 -19q93 -53 213 -53q17 0 17 -17v-122q0 -17 -17 -17zM717 676zM681 -60zM681 -106zM828 946q-59 -69 -106 -102q-57 35 -116 102q62 59 110 113q38 -51 112 -113zM685 776q-36 -56 -109 -126q-80 63 -123 112q49 46 119 125
q22 -23 113 -111zM978 802q-39 -60 -110 -126q-71 56 -121 113q37 34 118 125zM717 676zM716 1109zM650 -243q-34 -53 -109 -125q-75 58 -122 113q28 25 119 124q24 -28 112 -112zM944 -216q-37 -57 -110 -125q-76 57 -123 113q54 48 120 122zM804 -407q-66 -73 -107 -102
q-57 35 -116 102q62 56 110 114q31 -40 113 -114zM685 -237zM681 -106zM697 -529z" />
    <glyph glyph-name="uni069C.fina" unicode="&#x69c;" horiz-adv-x="2082" 
d="M2099 0q-79 0 -158.5 30.5t-132.5 80.5l-29 -56q-16 -24 -70.5 -39.5t-110.5 -15.5q-91 0 -164 52q-17 -21 -81 -35.5t-166 -16.5q-19 0 -92 8l1 -42q0 -126 -80 -241t-219 -188t-287 -73q-175 0 -273 100.5t-98 284.5q0 59 7.5 111.5t32.5 153.5l75 -18
q-23 -90 -23 -146q0 -150 75 -233.5t209 -83.5q152 0 303 74t202 182q-134 293 -134 391q0 53 30 96t104 87q10 -80 53 -295q55 -12 137 -12q95 0 160 21q14 22 50 141q14 49 30 92t35.5 74.5t64.5 31.5q28 0 48 -15q-28 -59 -83 -239l-23 -75q52 -26 109 -26q50 0 113 22
q16 25 59 147q34 98 55 141t40 52.5t40 9.5q28 0 49 -15q-21 -51 -43 -116l-60 -174l32 -19q93 -53 213 -53q17 0 17 -17v-122q0 -17 -17 -17zM1485 676zM1501 -60zM1501 -156zM1596 946q-59 -69 -106 -102q-57 35 -116 102q62 59 110 113q38 -51 112 -113zM1453 776
q-36 -56 -109 -126q-80 63 -123 112q49 46 119 125q22 -23 113 -111zM1746 802q-39 -60 -110 -126q-71 56 -121 113q37 34 118 125zM1485 676zM1484 1109zM1470 -293q-34 -53 -109 -125q-75 58 -122 113q28 25 119 124q24 -28 112 -112zM1764 -266q-37 -57 -110 -125
q-76 57 -123 113q54 48 120 122zM1624 -457q-66 -73 -107 -102q-57 35 -116 102q62 56 110 114q31 -40 113 -114zM1505 -287zM1501 -156zM1517 -579z" />
    <glyph glyph-name="uni069D.init" unicode="&#x69d;" horiz-adv-x="1610" 
d="M352 412q29 0 48 -19q-43 -104 -61 -142q50 -24 102 -40q392 520 668 520q58 0 143 -47t152 -121t67 -130q0 -126 -80.5 -222.5t-241.5 -153.5t-338 -57q-148 0 -304 32t-248 83l-35 -40q-68 -75 -224 -75q-17 0 -17 17v122q0 17 17 17q92 0 146 33.5t109 129.5l32 57
q21 36 65 36zM832 156q267 0 547 175q-62 108 -149 168.5t-172 60.5q-97 0 -231 -94.5t-291 -279.5q160 -30 296 -30zM831 831zM996 -60zM996 -106zM973 -259q-37 -59 -121 -140q-92 74 -136 125q54 50 132 138q18 -19 125 -123zM1282 -230q-37 -58 -123 -139
q-89 71 -135 125q46 42 132 138q18 -20 126 -124zM1000 -265zM996 -106zM1002 -419z" />
    <glyph glyph-name="uni069D.medi" unicode="&#x69d;" horiz-adv-x="1593" 
d="M1610 0q-87 0 -173 35t-141 92q-91 -59 -222.5 -93t-262.5 -34q-148 0 -304 32t-248 83l-35 -40q-68 -75 -224 -75q-17 0 -17 17v122q0 17 17 17q92 0 146 33.5t109 129.5l32 57q21 36 65 36q29 0 48 -19q-43 -104 -61 -142q50 -24 102 -40q392 520 668 520q58 0 143 -47
t152 -121t67 -130q0 -124 -79 -221q93 -56 218 -56q18 0 18 -17v-122q0 -17 -18 -17zM832 156q267 0 547 175q-62 108 -149 168.5t-172 60.5q-97 0 -231 -94.5t-291 -279.5q160 -30 296 -30zM831 831zM996 -60zM996 -106zM974 -259q-37 -59 -121 -140q-92 74 -136 125
q54 50 132 138q18 -19 125 -123zM1283 -230q-37 -58 -123 -139q-89 71 -135 125q46 42 132 138q18 -20 126 -124zM1001 -265zM997 -106zM1003 -419z" />
    <glyph glyph-name="uni069D.fina" unicode="&#x69d;" horiz-adv-x="2251" 
d="M2269 0q-87 0 -173.5 35.5t-136.5 87.5q-89 -56 -217 -89.5t-262 -33.5q-206 0 -389 50q5 -43 5 -84q0 -126 -80 -241t-219 -188t-287 -73q-175 0 -273 100.5t-98 284.5q0 59 7.5 111.5t32.5 153.5l75 -18q-23 -90 -23 -146q0 -150 75 -233.5t209 -83.5q152 0 303 74
t202 182q-134 293 -134 391q0 53 30 96t104 87q8 -60 41 -235l36 -15l10 -3q206 270 370.5 395.5t299.5 125.5q63 0 150.5 -51t149.5 -122.5t62 -124.5q0 -131 -83 -225q91 -52 213 -52q17 0 17 -17v-122q0 -17 -17 -17zM1500 156q267 0 547 175q-62 108 -149 168.5
t-171 60.5q-101 0 -239 -100t-284 -276q168 -28 296 -28zM1493 831zM1640 -60zM1640 -106zM1617 -259q-37 -59 -121 -140q-92 74 -136 125q54 50 132 138q18 -19 125 -123zM1926 -230q-37 -58 -123 -139q-89 71 -135 125q46 42 132 138q18 -20 126 -124zM1644 -265z
M1640 -106zM1646 -419z" />
    <glyph glyph-name="uni069E.init" unicode="&#x69e;" horiz-adv-x="1610" 
d="M352 412q29 0 48 -19q-43 -104 -61 -142q50 -24 102 -40q392 520 668 520q58 0 143 -47t152 -121t67 -130q0 -126 -80.5 -222.5t-241.5 -153.5t-338 -57q-148 0 -304 32t-248 83l-35 -40q-68 -75 -224 -75q-17 0 -17 17v122q0 17 17 17q92 0 146 33.5t109 129.5l32 57
q21 36 65 36zM832 156q267 0 547 175q-62 108 -149 168.5t-172 60.5q-97 0 -231 -94.5t-291 -279.5q160 -30 296 -30zM831 831zM996 -60zM996 -106zM942 1101q-59 -69 -106 -102q-57 35 -116 102q62 59 110 113q38 -51 112 -113zM799 931q-36 -56 -109 -126q-80 63 -123 112
q49 46 119 125q22 -23 113 -111zM1092 957q-39 -60 -110 -126q-71 56 -121 113q37 34 118 125zM831 831zM830 1264z" />
    <glyph glyph-name="uni069E.medi" unicode="&#x69e;" horiz-adv-x="1593" 
d="M1610 0q-87 0 -173 35t-141 92q-91 -59 -222.5 -93t-262.5 -34q-148 0 -304 32t-248 83l-35 -40q-68 -75 -224 -75q-17 0 -17 17v122q0 17 17 17q92 0 146 33.5t109 129.5l32 57q21 36 65 36q29 0 48 -19q-43 -104 -61 -142q50 -24 102 -40q392 520 668 520q58 0 143 -47
t152 -121t67 -130q0 -124 -79 -221q93 -56 218 -56q18 0 18 -17v-122q0 -17 -18 -17zM832 156q267 0 547 175q-62 108 -149 168.5t-172 60.5q-97 0 -231 -94.5t-291 -279.5q160 -30 296 -30zM831 831zM996 -60zM996 -106zM942 1102q-59 -69 -106 -102q-57 35 -116 102
q62 59 110 113q38 -51 112 -113zM799 932q-36 -56 -109 -126q-80 63 -123 112q49 46 119 125q22 -23 113 -111zM1092 958q-39 -60 -110 -126q-71 56 -121 113q37 34 118 125zM831 832zM830 1265z" />
    <glyph glyph-name="uni069E.fina" unicode="&#x69e;" horiz-adv-x="2251" 
d="M2269 0q-87 0 -173.5 35.5t-136.5 87.5q-89 -56 -217 -89.5t-262 -33.5q-206 0 -389 50q5 -43 5 -84q0 -126 -80 -241t-219 -188t-287 -73q-175 0 -273 100.5t-98 284.5q0 59 7.5 111.5t32.5 153.5l75 -18q-23 -90 -23 -146q0 -150 75 -233.5t209 -83.5q152 0 303 74
t202 182q-134 293 -134 391q0 53 30 96t104 87q8 -60 41 -235l36 -15l10 -3q206 270 370.5 395.5t299.5 125.5q63 0 150.5 -51t149.5 -122.5t62 -124.5q0 -131 -83 -225q91 -52 213 -52q17 0 17 -17v-122q0 -17 -17 -17zM1500 156q267 0 547 175q-62 108 -149 168.5
t-171 60.5q-101 0 -239 -100t-284 -276q168 -28 296 -28zM1493 831zM1640 -60zM1640 -106zM1604 1101q-59 -69 -106 -102q-57 35 -116 102q62 59 110 113q38 -51 112 -113zM1461 931q-36 -56 -109 -126q-80 63 -123 112q49 46 119 125q22 -23 113 -111zM1754 957
q-39 -60 -110 -126q-71 56 -121 113q37 34 118 125zM1493 831zM1492 1264z" />
    <glyph glyph-name="uni069F.init" unicode="&#x69f;" horiz-adv-x="1352" 
d="M1248 457q0 -147 -137.5 -249.5t-410.5 -155t-700 -52.5q-17 0 -17 17v122q0 17 17 17l169 2h7q65 90 131 172l-60 353q-27 134 -49 295.5t-23 234.5q0 67 31 106t104 55q19 -75 37 -128l36 -115l-54 -46l1 -10q3 -39 18.5 -193t22.5 -200q18 -209 20 -256
q145 159 273 244t222 85q58 0 143 -47t152 -121t67 -130zM1154 367q-60 103 -143.5 160.5t-174.5 57.5q-93 0 -236.5 -112t-309.5 -313q203 8 350 27.5t242 54t272 125.5zM863 915zM732 -60zM732 -106zM974 1185q-59 -69 -106 -102q-57 35 -116 102q62 59 110 113
q38 -51 112 -113zM831 1015q-36 -56 -109 -126q-80 63 -123 112q49 46 119 125q22 -23 113 -111zM1124 1041q-39 -60 -110 -126q-71 56 -121 113q37 34 118 125zM863 915zM862 1348z" />
    <glyph glyph-name="uni069F.medi" unicode="&#x69f;" horiz-adv-x="1289" 
d="M1248 457q0 -151 -144 -255q88 -46 202 -46q17 0 17 -17v-122q0 -17 -17 -17q-92 0 -182.5 39.5t-138.5 96.5q-140 -65 -387.5 -100.5t-597.5 -35.5q-17 0 -17 17v122q0 17 17 17l169 2h7q65 90 131 172l-60 353q-27 134 -49 295.5t-23 234.5q0 67 31 106t104 55
q19 -75 37 -128l36 -115l-54 -46l1 -10q3 -39 18.5 -193t22.5 -200q18 -209 20 -256q145 159 273 244t222 85q58 0 143 -47t152 -121t67 -130zM1154 367q-60 103 -143.5 160.5t-174.5 57.5q-93 0 -236.5 -112t-309.5 -313q203 8 350 27.5t242 54t272 125.5zM866 915z
M732 -60zM732 -106zM977 1185q-59 -69 -106 -102q-57 35 -116 102q62 59 110 113q38 -51 112 -113zM834 1015q-36 -56 -109 -126q-80 63 -123 112q49 46 119 125q22 -23 113 -111zM1127 1041q-39 -60 -110 -126q-71 56 -121 113q37 34 118 125zM866 915zM865 1348z" />
    <glyph glyph-name="uni069F.fina" unicode="&#x69f;" horiz-adv-x="1588" 
d="M1605 0q-87 0 -173 35.5t-139 89.5q-91 -58 -219.5 -91.5t-262.5 -33.5q-125 0 -245 7.5t-173 17.5t-149.5 59.5t-156.5 92.5l21 71l240 -52l70 -12l119 148l-60 351q-25 127 -48.5 293t-23.5 232q0 70 30.5 110t104.5 56q25 -99 53 -180l20 -63l-55 -47l1 -9
q36 -351 42 -393q17 -127 19 -257q288 306 489 306q58 0 143 -47t152 -121t67 -130q0 -127 -81 -223l2 -1q93 -53 213 -53q18 0 18 -17v-122q0 -17 -18 -17zM832 156q267 0 547 175q-62 108 -149 168.5t-172 60.5q-101 0 -242 -102.5t-293 -287.5q154 -14 309 -14zM1086 891
zM922 -60zM922 -126zM1197 1161q-59 -69 -106 -102q-57 35 -116 102q62 59 110 113q38 -51 112 -113zM1054 991q-36 -56 -109 -126q-80 63 -123 112q49 46 119 125q22 -23 113 -111zM1347 1017q-39 -60 -110 -126q-71 56 -121 113q37 34 118 125zM1086 891zM1085 1324z" />
    <glyph glyph-name="uni06A0.init" unicode="&#x6a0;" horiz-adv-x="1034" 
d="M0 0q-17 0 -17 17v122q0 17 17 17q132 0 255 6q-49 32 -85.5 88t-36.5 119q0 87 47.5 183t122.5 155t157 59q71 0 136 -35.5t151 -110.5l-36 -65q-81 31 -118 39t-81 8q-126 0 -263 -75q0 -88 42.5 -160.5t123.5 -116.5t191 -50q78 16 149 38.5t199 72.5q28 -26 28 -73
l-2 -21q-12 -69 -85 -87q-244 -61 -369 -83.5t-256.5 -34.5t-269.5 -12zM439 866zM569 -60zM569 -106zM550 1136q-59 -69 -106 -102q-57 35 -116 102q62 59 110 113q38 -51 112 -113zM407 966q-36 -56 -109 -126q-80 63 -123 112q49 46 119 125q22 -23 113 -111zM700 992
q-39 -60 -110 -126q-71 56 -121 113q37 34 118 125zM439 866zM438 1299z" />
    <glyph glyph-name="uni06A0.medi" unicode="&#x6a0;" horiz-adv-x="847" 
d="M862 0q-258 0 -398 100l-15 11l-20 -11q-196 -100 -427 -100q-19 0 -19 19v118q0 19 19 19q213 0 351 49l-37 47q-81 115 -118 158.5t-67 67.5l-32 -22q-37 40 -37 91q0 72 71 119t156 73.5t173 26.5q132 0 219.5 -73.5t87.5 -182.5q0 -59 -21.5 -113t-57 -100.5
t-105.5 -103.5q86 -37 277 -37q20 0 20 -19v-118q0 -19 -20 -19zM623 466q0 58 -43 94.5t-112 36.5q-125 0 -241 -60q74 -59 196 -211q23 -29 51 -56q68 46 108.5 97.5t40.5 98.5zM433 866zM452 -60zM452 -106zM544 1136q-59 -69 -106 -102q-57 35 -116 102q62 59 110 113
q38 -51 112 -113zM401 966q-36 -56 -109 -126q-80 63 -123 112q49 46 119 125q22 -23 113 -111zM694 992q-39 -60 -110 -126q-71 56 -121 113q37 34 118 125zM433 866zM432 1299z" />
    <glyph glyph-name="uni06A0.fina" unicode="&#x6a0;" horiz-adv-x="976" 
d="M680 -585q-206 0 -331 108t-125 284q0 192 159 329l63 52q-28 31 -51 64q-80 114 -116 156.5t-69 69.5l-32 -22q-38 41 -38 92q0 73 75.5 121t159 72.5t165.5 24.5q132 0 219.5 -73.5t87.5 -182.5q0 -88 -47 -162.5t-152 -148.5q97 -43 292 -43h50q20 0 20 -19v-118
q0 -19 -20 -19h-50q-258 0 -398 100l-21 16l-36 -24q-188 -124 -188 -283q0 -117 95.5 -173.5t306.5 -56.5q98 0 166 11t215 55l29 -68q-151 -94 -243 -128t-186 -34zM553 269q87 68 117.5 111.5t30.5 85.5q0 57 -42.5 94t-111.5 37q-130 0 -241 -61q34 -27 75.5 -70
t119.5 -140zM506 866zM153 -537zM610 -685zM617 1136q-59 -69 -106 -102q-57 35 -116 102q62 59 110 113q38 -51 112 -113zM474 966q-36 -56 -109 -126q-80 63 -123 112q49 46 119 125q22 -23 113 -111zM767 992q-39 -60 -110 -126q-71 56 -121 113q37 34 118 125zM506 866z
M505 1299z" />
    <glyph glyph-name="uni06A1.fina" unicode="&#x6a1;" horiz-adv-x="1674" 
d="M1692 0q-253 0 -421 82q-101 -37 -261.5 -59.5t-353.5 -22.5q-517 0 -517 349q0 127 28 225h74q-8 -51 -8 -101q0 -125 46.5 -188t149 -96t271.5 -33q196 0 367 35q-38 39 -60 88t-22 95q0 45 12 118.5t25 95.5q54 98 139 155.5t185 57.5q53 0 103 -53.5t80.5 -140
t30.5 -174.5q0 -150 -118 -255q119 -22 250 -22q17 0 17 -17v-122q0 -17 -17 -17zM1480 371q-5 51 -31 109t-63 102t-59 44q-58 0 -137.5 -69.5t-127.5 -163.5q83 -96 190 -150q144 55 228 128zM1269 901zM1267 -60zM1267 -106z" />
    <glyph glyph-name="uni06A2.init" unicode="&#x6a2;" horiz-adv-x="860" 
d="M658 266q-10 84 -28 161q-62 -53 -138.5 -83t-152.5 -30q-90 0 -146.5 68t-56.5 171q0 157 75.5 277t178.5 120q106 0 188 -76t130 -216t48 -302q0 -70 -72 -208q-124 -77 -278 -112.5t-404 -35.5q-19 0 -19 19v118q0 19 19 19q221 0 374 26.5t282 83.5zM359 776
q-62 0 -103.5 -56.5t-41.5 -126.5q0 -64 41.5 -94t132.5 -30q100 0 216 52q-40 124 -102.5 189.5t-142.5 65.5zM402 1050zM464 -60zM464 -106zM600 -260q-48 -69 -132 -150q-88 69 -147 134q92 90 143 150q71 -77 136 -134zM463 -276zM464 -106zM468 -430zM464 -76z" />
    <glyph glyph-name="uni06A2.medi" unicode="&#x6a2;" horiz-adv-x="792" 
d="M178 163q-75 88 -75 176q0 53 12 122.5t24 91.5q53 97 139 155t185 58q53 0 102.5 -51.5t80.5 -140t31 -175.5q0 -132 -88 -233q65 -10 220 -10q18 0 18 -17v-122q0 -17 -18 -17q-252 0 -411 63l-9 3q-70 -35 -163 -50.5t-224 -15.5q-19 0 -19 19v118q0 19 19 19
q113 0 176 7zM597 336q-5 51 -33 112t-63 102.5t-57 41.5q-58 0 -137 -69t-128 -165q85 -99 211 -147q113 43 207 125zM409 866zM397 -60zM397 -106zM533 -260q-48 -69 -132 -150q-88 69 -147 134q92 90 143 150q71 -77 136 -134zM396 -276zM397 -106zM401 -430zM397 -76z
" />
    <glyph glyph-name="uni06A2.fina" unicode="&#x6a2;" horiz-adv-x="1674" 
d="M1692 0q-253 0 -421 82q-101 -37 -261.5 -59.5t-353.5 -22.5q-517 0 -517 349q0 127 28 225h74q-8 -51 -8 -101q0 -125 46.5 -188t149 -96t271.5 -33q196 0 367 35q-38 39 -60 88t-22 95q0 45 12 118.5t25 95.5q54 98 139 155.5t185 57.5q53 0 103 -53.5t80.5 -140
t30.5 -174.5q0 -150 -118 -255q119 -22 250 -22q17 0 17 -17v-122q0 -17 -17 -17zM1480 371q-5 51 -31 109t-63 102t-59 44q-58 0 -137.5 -69.5t-127.5 -163.5q83 -96 190 -150q144 55 228 128zM1269 901zM1267 -60zM1267 -106zM1403 -260q-48 -69 -132 -150
q-88 69 -147 134q92 90 143 150q71 -77 136 -134zM1266 -276zM1267 -106zM1271 -430zM1267 -76z" />
    <glyph glyph-name="uni06A3.init" unicode="&#x6a3;" horiz-adv-x="860" 
d="M658 266q-10 84 -28 161q-62 -53 -138.5 -83t-152.5 -30q-90 0 -146.5 68t-56.5 171q0 157 75.5 277t178.5 120q106 0 188 -76t130 -216t48 -302q0 -70 -72 -208q-124 -77 -278 -112.5t-404 -35.5q-19 0 -19 19v118q0 19 19 19q221 0 374 26.5t282 83.5zM359 776
q-62 0 -103.5 -56.5t-41.5 -126.5q0 -64 41.5 -94t132.5 -30q100 0 216 52q-40 124 -102.5 189.5t-142.5 65.5zM402 1050zM464 -60zM464 -106zM534 1220q-48 -69 -132 -150q-91 72 -147 133q105 105 143 150q65 -71 136 -133zM402 1050zM398 1403zM600 -260
q-48 -69 -132 -150q-88 69 -147 134q92 90 143 150q71 -77 136 -134zM463 -276zM464 -106zM468 -430zM464 -76z" />
    <glyph glyph-name="uni06A3.medi" unicode="&#x6a3;" horiz-adv-x="792" 
d="M178 163q-75 88 -75 176q0 53 12 122.5t24 91.5q53 97 139 155t185 58q53 0 102.5 -51.5t80.5 -140t31 -175.5q0 -132 -88 -233q65 -10 220 -10q18 0 18 -17v-122q0 -17 -18 -17q-252 0 -411 63l-9 3q-70 -35 -163 -50.5t-224 -15.5q-19 0 -19 19v118q0 19 19 19
q113 0 176 7zM597 336q-5 51 -33 112t-63 102.5t-57 41.5q-58 0 -137 -69t-128 -165q85 -99 211 -147q113 43 207 125zM409 866zM397 -60zM397 -106zM541 1036q-48 -69 -132 -150q-91 72 -147 133q105 105 143 150q65 -71 136 -133zM409 866zM405 1219zM533 -260
q-48 -69 -132 -150q-88 69 -147 134q92 90 143 150q71 -77 136 -134zM396 -276zM397 -106zM401 -430zM397 -76z" />
    <glyph glyph-name="uni06A3.fina" unicode="&#x6a3;" horiz-adv-x="1674" 
d="M1692 0q-253 0 -421 82q-101 -37 -261.5 -59.5t-353.5 -22.5q-517 0 -517 349q0 127 28 225h74q-8 -51 -8 -101q0 -125 46.5 -188t149 -96t271.5 -33q196 0 367 35q-38 39 -60 88t-22 95q0 45 12 118.5t25 95.5q54 98 139 155.5t185 57.5q53 0 103 -53.5t80.5 -140
t30.5 -174.5q0 -150 -118 -255q119 -22 250 -22q17 0 17 -17v-122q0 -17 -17 -17zM1480 371q-5 51 -31 109t-63 102t-59 44q-58 0 -137.5 -69.5t-127.5 -163.5q83 -96 190 -150q144 55 228 128zM1269 901zM1267 -60zM1267 -106zM1401 1071q-48 -69 -132 -150
q-91 72 -147 133q105 105 143 150q65 -71 136 -133zM1269 901zM1265 1254zM1403 -260q-48 -69 -132 -150q-88 69 -147 134q92 90 143 150q71 -77 136 -134zM1266 -276zM1267 -106zM1271 -430zM1267 -76z" />
    <glyph glyph-name="uni06A4" unicode="&#x6a4;" horiz-adv-x="1737" arabic-form="isolated" 
d="M656 0q-517 0 -517 349q0 127 28 225h74q-8 -51 -8 -101q0 -125 46.5 -188t149 -96t271.5 -33q203 0 451 42t384 103q-10 83 -28 160q-136 -112 -290 -112q-90 0 -147 67t-57 172q0 157 75.5 277t178.5 120q104 0 186.5 -74.5t131 -213t48.5 -306.5q0 -70 -72 -208
q-136 -87 -388 -135t-517 -48zM1236 811q-60 0 -102.5 -56.5t-42.5 -126.5q0 -65 42 -94.5t133 -29.5q99 0 215 52q-40 124 -102.5 189.5t-142.5 65.5zM1326 -106zM1217 1085zM1328 1355q-59 -69 -106 -102q-57 35 -116 102q62 59 110 113q38 -51 112 -113zM1185 1185
q-36 -56 -109 -126q-80 63 -123 112q49 46 119 125q22 -23 113 -111zM1478 1211q-39 -60 -110 -126q-71 56 -121 113q37 34 118 125zM1217 1085zM1216 1518z" />
    </font>
</defs>
</svg>
